Мисливці на монстрів (Сезон 1) / The Troop (Season 1) (2009-2010) 720p Ukr/Eng

Нові коментарі

Нова тема   Відповісти
Автор Повідомлення
Anonymous 







2018-11-11 21:12  
Мисливці на монстрів (Сезон 1) / The Troop (Season 1) (2009-2010) 720p Ukr/Eng

Мисливці на монстрів (Сезон 1) / The Troop (Season 1) (2009-2010) 720p Ukr/Eng


Жанр: фантастика, екшн, пригодницький, комедія, підлітковий ситком
Країна: США, Канада



Кінокомпанія: Nickelodeon Network, Nicktroop Productions, Tom Lynch Company
Режисер: Макс Бернетт (Max Burnett), Грег Кулідж (Greg Coolidge), Кріс Морґан (Chris Morgan)
Актори: Нік Перселл (Nicholas Purcell), Девід Дель Ріо (David Del Rio), Гейдж Голайтлі (Gage Golightly), Джон Маршалл Джонс (John Marshall Jones) та інші

Сюжет:
Ця історія - про підлітка Джейка з містечка Лейквуд, якого запрошують до місцевої ланки всесвітньої таємної організації, що протягом багатьох століть захищає наш світ від монстрів, які, як виявляється, існують насправді. Його колеги по команді також школярі: Гейлі, одна з найпопулярніших дівчат школи, та Фелікс, шкільний «ботанік». Цих підлітків обрано для роботи в організації, бо їхній розум більш відкритий для різних незвичайних і незрозумілих речей, що існують у світі. Бійців групи постійно доводиться замінювати, так як, дорослішаючи, їх починає сковувати страх перед монстрами, і вони вже не можуть ефективно битися с ними.


Тривалість: 1 серія: 23-24 хв. (цілком серій: 23)
Перелік серій
01) Welcome to the Jungle
02) Do the Worm
03) Forest Grump
04) There Is No I in Monster Hunter
05) The Great Punkin
06) Pajama Game... of Death
07) Taming of the Cube
08) No More Master Nice Guy
09) Tentacle Face
10) The Good, the Bad and the Ickie Doll
11) Lost in Translation
12) Unpleasantville
13) My Gus Is Back, and You're Gonna Be in Trouble
14) The Substitute
15) I, Monster
16) Like a Moth to the Spotlight
17) Speed
18) Snarked Up
19) The Wrath of Wraith
20) Itty Bitty Baby Dragon
21) Hayley and Felix on the Side
22) Double Felix
23) Do Not Talk to Dr. Cranius
24) Batteries Not Included [відсутня]
25) Vampsters [відсутня]
26) The Next Stop: Lakewood [відсутня]
Серії 24-26 відсутні


Якість: [iTunes]
Відео:
кодек:
розмір кадру: 1280 х 720
бітрейт: ~4000 кб/с

Аудіо # 1:
мова: українська
переклад: багатоголосий закадровий (НЛО TV | Студія каналу Україна)
кодек: 2.0
бітрейт: 192 кб/с

Аудіо # 2:
мова: англійська
переклад: оригінал
кодек: 2.0
бітрейт: 224 кб/с

Джерело озвучення:
Info
General
Unique ID : 213605778633907381715836827417422043053 (0xA0B2F9FE4C1DF065F9DA96B6A52B97AD)
Complete name : E:\Support\The Troop (Season 1) [, 720p, Ukr, Eng]\The.Troop.s01e01..720p.Ukr.Eng.
Format :
Format version : Version 4
File size : 760 MiB
Duration : 24 min 1 s
Overall bit rate : 4 425 kb/s
Encoded date : UTC 2018-12-08 19:32:55
Writing application : v29.0.0 ('Like It Or Not') 64-bit
Writing library : libebml v1.3.6 + v1.4.9

Video
ID : 1
Format : AVC
Format/Info : Advanced Video Codec
Format profile : [email protected]
Format settings : 2 Ref Frames
Format settings, CABAC : No
Format settings, ReFrames : 2 frames
Codec ID : V_MPEG4/ISO/AVC
Duration : 24 min 1 s
Bit rate : 4 007 kb/s
Width : 1 280 pixels
Height : 720 pixels
Display aspect ratio : 16:9
Frame rate mode : Constant
Frame rate : 23.976 (23976/1000) FPS
Color space : YUV
Chroma subsampling : 4:2:0
Bit depth : 8 bits
Scan type : Progressive
Bits/(Pixel*Frame) : 0.181
Stream size : 688 MiB (91%)
Default : Yes
Forced : No
Color range : Limited
Color primaries : BT.709
Transfer characteristics : BT.709
Matrix coefficients : BT.709

Audio #1
ID : 2
Format : AC-3
Format/Info : Audio Coding 3
Commercial name : Dolby Digital
Codec ID : A_AC3
Duration : 24 min 1 s
Bit rate mode : Constant
Bit rate : 192 kb/s
Channel(s) : 2 channels
Channel layout : L R
Sampling rate : 48.0 kHz
Frame rate : 31.250 FPS (1536 SPF)
Bit depth : 16 bits
Compression mode : Lossy
Stream size : 33.0 MiB (4%)
Title : НЛО TV
Language : Ukrainian
Service kind : Complete Main
Default : Yes
Forced : No

Audio #2
ID : 3
Format : AC-3
Format/Info : Audio Coding 3
Commercial name : Dolby Digital
Codec ID : A_AC3
Duration : 24 min 1 s
Bit rate mode : Constant
Bit rate : 224 kb/s
Channel(s) : 2 channels
Channel layout : L R
Sampling rate : 48.0 kHz
Frame rate : 31.250 FPS (1536 SPF)
Bit depth : 16 bits
Compression mode : Lossy
Stream size : 38.5 MiB (5%)
Language : English
Service kind : Complete Main
Default : No
Forced : No
Скріншоти

Дякую POMEO та drakon87 за записи з ТБ

Джерело: &
Особиста оцінка: 7 - мені сподобалося


Бронзовий реліз (на рейтинг впливає 75% завантаженого)
 Трекер:    Зареєстрований   

Завантажити / скачати серіал українською



відео для новачків



 Зареєстрований:   2018-12-11 21:46
 Розмір:   17.16 GB 
 Оцінка серіалу:   9.3/10 (Голосів: 6)
   
leicheman 
Відео Гуртом - фільмокрай
Відео Гуртом - фільмокрай


З нами з: 03.07.14
Востаннє: 05.12.20
Повідомлень: 5709

2018-12-12 18:12  
а другий показували/показують?
Anonymous 







2018-12-12 18:21  
leicheman написано:
а другий показували/показують?

Це все, що є з записів, чи показали закінчення першого сезону та другий сезон - інформації нема. Показували десь у 2015.

Ще є інформація, що серіал раніше показували на Новому каналі, але знову ж таки невідомо, чи був там другий сезон.

Djohnnikey 
VIP


З нами з: 01.10.15
Востаннє: 04.12.20
Повідомлень: 438

2019-03-26 23:55  
Серіал з розряду "можна дивитися". Часом дещо банальний сюжет, як правило не розвиваються лінії з серії у серію, і те що сталося у попередній практично ніяк не впливає на наступну - кожна з них це окрема історія. До того ж з логікою проблеми: наприклад на початку сезону Хейлі - новачок у команді підтримки та першокурсниця (тільки незрозуміло перший курс чого, та, якщо вона тільки почала вчитися у цій школі, чому вона вже "ветеран" мисливців на монстрів, які працюють у... цієї школі?..), а у кінці сезону Хейлі - вже капітан групи підтримки. Як так? Куди ділася стара капитанша, яка Хейлі не любила?
Іноді дратують "фішки" взяті з інших картин: наприклад зі стиранням пам'яті явно не оригінальна ідея, тому що навіть по самій процедурі стирання вона явно нагадує "Людей у чорному"
Серіал дещо схожий на "Big Wolf on Campus", ось тільки харизми Денні Сміта у Девіда Дель Ріо немає й близько.
6 з 10.

POMEO 
Відео Гуртом - запис з ТБ
Відео Гуртом - запис з ТБ


З нами з: 01.07.08
Востаннє: 05.12.20
Повідомлень: 1062

2020-04-10 12:55  
другий сезон по Індиго транслювали
Anonymous 







2020-04-10 12:56  
POMEO
Є записи?

POMEO 
Відео Гуртом - запис з ТБ
Відео Гуртом - запис з ТБ


З нами з: 01.07.08
Востаннє: 05.12.20
Повідомлень: 1062

2020-04-10 13:20  
Anonymous
одна серія без 1,5хв в кінці (

Anonymous 







2020-04-10 13:25  
POMEO
З однієї серії користі мало Sad (1).

Ваш часовий пояс: GMT + 2 Години

Нова тема   Відповісти