За дев'ятьма морями / Resan till Fjäderkungens Rike (2014)

Нові коментарі

Нова тема   Відповісти
Автор Повідомлення
sergiyko.5 
VIP


З нами з: 25.02.16
Востаннє: 05.12.19
Повідомлень: 2801

2018-11-11 16:40  


За дев'ятьма морями / Resan till Fjäderkungens Rike (2014)

За дев'ятьма морями / Resan till Fjäderkungens Rike (2014)

Жанр: пригоди, фентазі
Країна: Данія, Швеція
Кінокомпанія: Copenhagen Bombay, Film i Väst
Режисер: Есбен Тофт Якобсен
Актори: Едвін Рюдінг, Тува Новотни, Густаф Хаммарстен, Леннарт Екель, Сіссела Кайл, Лейф Андре, Пелле Фальк Крусбек, Сьос Егелінд, Ларс Брюгманн, Флеммінг Квіст Меллер

Сюжет:
Зайченя Йохан живе на незвичайній планеті, де вмираючих забирає літаючий монстр Пернатий король і забирає в своє Царство Короля Пір'я. Так було і з його мамою. З тих пір батько ховає свого сина на кораблі, вважаючи, що чудовисько боїться води, і тим самим він оберігає Йохана. Але зайченя не боїться Пернатого короля, навпаки він намагається привернути його увагу. Одного разу Йохан залишається на судні один, в цей самий час він чує по радіо сигнал про допомогу від знайомого його тата Білла. Йохан відправляється на допомогу, але по дорозі назад судно починає тонути. Зайченя готовий піти на складні випробування, щоб потрапити в Царство Короля Пір'я і спробувати врятувати маму ...




Тривалість: 01:18:25
Якість:

Відео: кодек: розмір кадру: 720 х 304 бітрейт: 1700 кб/с
Аудіо: мова: українська переклад: багатоголосий закадровий кодек: 2.0 бітрейт: 192 кб/с
Озвучення:
Про файл:
General
Complete name : G:\Torrents2\MULT\Resan.till.Fjäderkungens.Rike.2014..avi
Format : AVI
Format/Info : Audio Video Interleave
File size : 1.06 GiB
Duration : 1 h 18 min
Overall bit rate : 1 934 kb/s
Writing application : VirtualDubMod 1.5.10.3 | www.virtualdub-fr.org || (build 2550/release)
Writing library : VirtualDubMod build 2550/release

Video
ID : 0
Format : MPEG-4 Visual
Format profile : Advanced [email protected]
Format settings : BVOP1 / Custom Matrix
Format settings, BVOP : 1
Format settings, QPel : No
Format settings, GMC : No warppoints
Format settings, Matrix : Custom
Codec ID :
Codec ID/Hint :
Duration : 1 h 18 min
Bit rate : 1 732 kb/s
Width : 720 pixels
Height : 304 pixels
Display aspect ratio : 2.35:1
Frame rate : 23.976 (24000/1001) FPS
Color space : YUV
Chroma subsampling : 4:2:0
Bit depth : 8 bits
Scan type : Progressive
Compression mode : Lossy
Bits/(Pixel*Frame) : 0.330
Stream size : 971 MiB (90%)
Writing library : 73

Audio
ID : 1
Format : AC-3
Format/Info : Audio Coding 3
Commercial name : Dolby Digital
Codec ID : 2000
Duration : 1 h 18 min
Bit rate mode : Constant
Bit rate : 192 kb/s
Channel(s) : 2 channels
Channel layout : L R
Sampling rate : 48.0 kHz
Frame rate : 31.250 FPS (1536 SPF)
Bit depth : 16 bits
Compression mode : Lossy
Stream size : 108 MiB (10%)
Alignment : Split accross interleaves
Interleave, duration : 42 ms (1.00 video frame)
Interleave, preload duratio : 500 ms
Service kind : Complete Main
Скріншоти:



Запис/зведення: sergiyko


 Трекер:    Зареєстрований   

Завантажити / скачати мультфільм українською



відео для новачків



 Зареєстрований:   2018-11-11 16:40
 Розмір:   1.06 GB 
 Оцінка мультфільму:   9.8/10 (Голосів: 12)
   
Віктор Багряний 
VIP


З нами з: 20.08.12
Востаннє: 04.12.19
Повідомлень: 397

2018-11-25 17:14  
калька з эзига "с тех пор" українською звучить як відтоді або з того часу
Джерх 
Свій


З нами з: 17.03.12
Востаннє: 02.12.19
Повідомлень: 109

2018-12-10 19:57  
Не можу сказати, що це веселий чи смішний мультфільм. Але хороша, дуже хороша робота, дякую.
Ваш часовий пояс: GMT + 2 Години

Нова тема   Відповісти