За дев'ятьма морями / Resan till Fjäderkungens Rike (2014) 1080p 2xUkr/Swe

Нові коментарі

Нова тема   Відповісти
Автор Повідомлення
sergiyko.5 
VIP


З нами з: 25.02.16
Востаннє: 28.02.20
Повідомлень: 2957

2018-11-11 16:31  
За дев'ятьма морями / Resan till Fjäderkungens Rike (2014) 1080p 2xUkr/Swe

За дев'ятьма морями / Resan till Fjäderkungens Rike (2014) 1080p 2xUkr/Swe

Жанр: пригодницький, фентезі
Країна: Данія, Швеція



Кінокомпанія: Copenhagen Bombay, Film i Väst
Режисер: Есбен Тофт Якобсен
Актори: Едвін Рюдінг, Тува Новотни, Густаф Хаммарстен, Леннарт Екель, Сіссела Кайл, Лейф Андре, Пелле Фальк Крусбек, Сьос Егелінд, Ларс Брюгманн, Флеммінг Квіст Меллер

Сюжет:
Зайченя Йохан живе на незвичайній планеті, де вмираючих забирає літаючий монстр Пернатий король і забирає в своє Царство Короля Пір'я. Так було і з його мамою. З тих пір батько ховає свого сина на кораблі, вважаючи, що чудовисько боїться води, і тим самим він оберігає Йохана. Але зайченя не боїться Пернатого короля, навпаки він намагається привернути його увагу. Одного разу Йохан залишається на судні один, в цей самий час він чує по радіо сигнал про допомогу від знайомого його тата Білла. Йохан відправляється на допомогу, але по дорозі назад судно починає тонути. Зайченя готовий піти на складні випробування, щоб потрапити в Царство Короля Пір'я і спробувати врятувати маму ...


Тривалість: 01:18:25
Якість:

Відео: кодек: розмір кадру: 1920 х 800 бітрейт: 6500 кб/с
Аудіо 1: мова: українська переклад: багатоголосий закадровий кодек: 2.0 бітрейт: 192 кб/с
Озвучення:
Аудіо 2: мова: українська переклад: багатоголосий закадровий кодек: 2.0 бітрейт: 192 кб/с
Озвучення: CINE+ KIDS
Аудіо 3: мова: шведська переклад: оригінал кодек: 5.1 бітрейт: 640 кб/с
Про файл:
General
Unique ID : 286470773810984787078353741389828819636 (0xD784439F2A963C0567864E9C09718AB4)
Complete name : D:\Documents\Torrents\MULTSER\Resan.till.Fjäderkungens.Rike.2014.1080p..Ukr.Swe.
Format :
Format version : Version 4
File size : 4.11 GiB
Duration : 1 h 18 min
Overall bit rate : 7 496 kb/s
Movie name : Resan till Fjäderkungens Rike 2014 by sergiyko
Encoded date : UTC 2019-09-15 18:43:04
Writing application : v36.0.0 ('Is That Jazz?') 64-bit
Writing library : libebml v1.3.9 + v1.5.2

Video
ID : 1
Format : AVC
Format/Info : Advanced Video Codec
Format profile : [email protected]
Format settings : CABAC / 5 Ref Frames
Format settings, CABAC : Yes
Format settings, Reference : 5 frames
Codec ID : V_MPEG4/ISO/AVC
Duration : 1 h 18 min
Bit rate : 6 472 kb/s
Width : 1 920 pixels
Height : 800 pixels
Display aspect ratio : 2.40:1
Frame rate mode : Constant
Frame rate : 23.976 (24000/1001) FPS
Color space : YUV
Chroma subsampling : 4:2:0
Bit depth : 8 bits
Scan type : Progressive
Bits/(Pixel*Frame) : 0.176
Stream size : 3.54 GiB (86%)
Title : Resan till Fjäderkungens Rike 2014
Writing library : core 142 r2453kMod ea0ca51
Encoding settings : cabac=1 / ref=5 / deblock=1:0:0 / analyse=0x3:0x133 / me=umh / subme=7 / psy=1 / fade_compensate=0.00 / psy_rd=1.00:0.00 / mixed_ref=1 / me_range=16 / chroma_me=1 / trellis=1 / 8x8dct=1 / cqm=0 / deadzone=21,11 / fast_pskip=0 / chroma_qp_offset=-2 / threads=6 / lookahead_threads=1 / sliced_threads=0 / nr=0 / decimate=1 / interlaced=0 / bluray_compat=0 / constrained_intra=0 / fgo=0 / bframes=3 / b_pyramid=2 / b_adapt=2 / b_bias=0 / direct=3 / weightb=1 / open_gop=0 / weightp=2 / keyint=250 / keyint_min=23 / scenecut=40 / intra_refresh=0 / rc_lookahead=50 / rc=2pass / mbtree=1 / bitrate=6472 / ratetol=1.0 / qcomp=0.60 / qpmin=0 / qpmax=69 / qpstep=4 / cplxblur=20.0 / qblur=0.5 / ip_ratio=1.40 / aq=1:1.00
Language : Swedish
Default : Yes
Forced : No

Audio #1
ID : 2
Format : AC-3
Format/Info : Audio Coding 3
Commercial name : Dolby Digital
Codec ID : A_AC3
Duration : 1 h 18 min
Bit rate mode : Constant
Bit rate : 192 kb/s
Channel(s) : 2 channels
Channel layout : L R
Sampling rate : 48.0 kHz
Frame rate : 31.250 FPS (1536 SPF)
Bit depth : 16 bits
Compression mode : Lossy
Stream size : 108 MiB (3%)
Title : MOV | Піксель
Language : Ukrainian
Service kind : Complete Main
Default : Yes
Forced : Yes

Audio #2
ID : 3
Format : AC-3
Format/Info : Audio Coding 3
Commercial name : Dolby Digital
Codec ID : A_AC3
Duration : 1 h 18 min
Bit rate mode : Constant
Bit rate : 192 kb/s
Channel(s) : 2 channels
Channel layout : L R
Sampling rate : 48.0 kHz
Frame rate : 31.250 FPS (1536 SPF)
Bit depth : 16 bits
Compression mode : Lossy
Stream size : 108 MiB (3%)
Title : MOV | CINE+ KIDS
Language : Ukrainian
Service kind : Complete Main
Default : No
Forced : No

Audio #3
ID : 4
Format : AC-3
Format/Info : Audio Coding 3
Commercial name : Dolby Digital
Codec ID : A_AC3
Duration : 1 h 18 min
Bit rate mode : Constant
Bit rate : 640 kb/s
Channel(s) : 6 channels
Channel layout : L R C LFE Ls Rs
Sampling rate : 48.0 kHz
Frame rate : 31.250 FPS (1536 SPF)
Bit depth : 16 bits
Compression mode : Lossy
Stream size : 359 MiB (9%)
Title : Original
Language : Swedish
Service kind : Complete Main
Default : No
Forced : No

Menu
00:00:00.000 : en:00:00:00.000
00:03:35.680 : en:00:03:35.680
00:08:08.800 : en:00:08:08.800
00:12:19.840 : en:00:12:19.840
00:16:19.440 : en:00:16:19.440
00:20:41.440 : en:00:20:41.440
00:25:21.760 : en:00:25:21.760
00:30:09.760 : en:00:30:09.760
00:34:00.160 : en:00:34:00.160
00:39:38.560 : en:00:39:38.560
00:45:40.000 : en:00:45:40.000
00:50:50.080 : en:00:50:50.080
00:55:37.120 : en:00:55:37.120
01:00:26.080 : en:01:00:26.080
01:06:08.400 : en:01:06:08.400
01:10:47.200 : en:01:10:47.200
Скріншоти:


Запис/зведення: sergiyko


 Трекер:    Зареєстрований   

Завантажити / скачати мультфільм українською



відео для новачків



 Зареєстрований:   2019-09-15 20:51
 Розмір:   4.11 GB 
 Оцінка мультфільму:   10/10 (Голосів: 9)
   
sergiyko.5 
VIP


З нами з: 25.02.16
Востаннє: 28.02.20
Повідомлень: 2957

2019-09-15 20:51  
Додав другу доріжку з озвучкою від CINE+ KIDS
xslim 
Відео Гуртом - фільмокрай
Відео Гуртом - фільмокрай


З нами з: 04.03.09
Востаннє: 27.02.20
Повідомлень: 1100

2020-01-27 23:23  
https://drive.google.com/open?id=1jNVKzXgAIEzmdBpCSyH1b8F-fVhKC7XN - Новий запис Т2 з Пікселя Spek 18 кГц
Ваш часовий пояс: GMT + 2 Години

Нова тема   Відповісти