За дев'ятьма морями / Resan till Fjäderkungens Rike (2014) AVC

Нові коментарі

Нова тема   Відповісти
Автор Повідомлення
sergiyko.5 
VIP


З нами з: 25.02.16
Востаннє: 25.10.20
Повідомлень: 3615

2018-11-11 17:19  


За дев'ятьма морями / Resan till Fjäderkungens Rike (2014) AVC

За дев'ятьма морями / Resan till Fjäderkungens Rike (2014) AVC

Жанр: пригоди, фентазі
Країна: Данія, Швеція
Кінокомпанія: Copenhagen Bombay, Film i Väst
Режисер: Есбен Тофт Якобсен
Актори: Едвін Рюдінг, Тува Новотни, Густаф Хаммарстен, Леннарт Екель, Сіссела Кайл, Лейф Андре, Пелле Фальк Крусбек, Сьос Егелінд, Ларс Брюгманн, Флеммінг Квіст Меллер

Сюжет:
Зайченя Йохан живе на незвичайній планеті, де вмираючих забирає літаючий монстр Пернатий король і забирає в своє Царство Короля Пір'я. Так було і з його мамою. З тих пір батько ховає свого сина на кораблі, вважаючи, що чудовисько боїться води, і тим самим він оберігає Йохана. Але зайченя не боїться Пернатого короля, навпаки він намагається привернути його увагу. Одного разу Йохан залишається на судні один, в цей самий час він чує по радіо сигнал про допомогу від знайомого його тата Білла. Йохан відправляється на допомогу, але по дорозі назад судно починає тонути. Зайченя готовий піти на складні випробування, щоб потрапити в Царство Короля Пір'я і спробувати врятувати маму ...




Тривалість: 01:18:25
Якість:

Відео: кодек: розмір кадру: 1024 х 422 бітрейт: 2200 кб/с
Аудіо: мова: українська переклад: багатоголосий закадровий кодек: 2.0бітрейт: 192 кб/с
Озвучення:
Про файл:
General
Unique ID : 315495613800037931190810921037038277514 (0xED5A3EB7EDCCD3C876D957F062A6D38A)
Complete name : G:\Torrents2\MULT\Resan.till.Fjäderkungens.Rike.2014.AVC.
Format :
Format version : Version 4
File size : 1.32 GiB
Duration : 1 h 18 min
Overall bit rate : 2 402 kb/s
Encoded date : UTC 2018-11-11 14:09:48
Writing application : v28.1.0 ('Morning Child') 64-bit
Writing library : libebml v1.3.6 + v1.4.9

Video
ID : 1
Format : AVC
Format/Info : Advanced Video Codec
Format profile : [email protected]
Format settings : CABAC / 8 Ref Frames
Format settings, CABAC : Yes
Format settings, ReFrames : 8 frames
Codec ID : V_MPEG4/ISO/AVC
Duration : 1 h 18 min
Bit rate : 2 209 kb/s
Width : 1 024 pixels
Height : 422 pixels
Display aspect ratio : 2.40:1
Frame rate mode : Constant
Frame rate : 23.976 (24000/1001) FPS
Color space : YUV
Chroma subsampling : 4:2:0
Bit depth : 8 bits
Scan type : Progressive
Bits/(Pixel*Frame) : 0.213
Stream size : 1.21 GiB (92%)
Writing library : core 130 r2273 b3065e6
Encoding settings : cabac=1 / ref=8 / deblock=1:-3:-2 / analyse=0x3:0x113 / me=umh / subme=10 / psy=1 / psy_rd=1.00:0.05 / mixed_ref=1 / me_range=32 / chroma_me=1 / trellis=2 / 8x8dct=1 / cqm=0 / deadzone=21,11 / fast_pskip=0 / chroma_qp_offset=-3 / threads=9 / lookahead_threads=1 / sliced_threads=0 / nr=0 / decimate=0 / interlaced=0 / bluray_compat=0 / constrained_intra=0 / bframes=8 / b_pyramid=2 / b_adapt=2 / b_bias=0 / direct=3 / weightb=1 / open_gop=0 / weightp=2 / keyint=240 / keyint_min=24 / scenecut=40 / intra_refresh=0 / rc_lookahead=40 / rc=2pass / mbtree=1 / bitrate=2209 / ratetol=1.0 / qcomp=0.60 / qpmin=0 / qpmax=69 / qpstep=4 / cplxblur=20.0 / qblur=0.5 / ip_ratio=1.40 / aq=1:1.00
Language : Swedish
Default : Yes
Forced : No

Audio
ID : 2
Format : AC-3
Format/Info : Audio Coding 3
Commercial name : Dolby Digital
Codec ID : A_AC3
Duration : 1 h 18 min
Bit rate mode : Constant
Bit rate : 192 kb/s
Channel(s) : 2 channels
Channel layout : L R
Sampling rate : 48.0 kHz
Frame rate : 31.250 FPS (1536 SPF)
Bit depth : 16 bits
Compression mode : Lossy
Stream size : 108 MiB (8%)
Title : MOV | Піксель
Language : Ukrainian
Service kind : Complete Main
Default : Yes
Forced : No

Menu
00:00:00.000 : en:00:00:00.000
00:03:35.680 : en:00:03:35.680
00:08:08.800 : en:00:08:08.800
00:12:19.840 : en:00:12:19.840
00:16:19.440 : en:00:16:19.440
00:20:41.440 : en:00:20:41.440
00:25:21.760 : en:00:25:21.760
00:30:09.760 : en:00:30:09.760
00:34:00.160 : en:00:34:00.160
00:39:38.560 : en:00:39:38.560
00:45:40.000 : en:00:45:40.000
00:50:50.080 : en:00:50:50.080
00:55:37.120 : en:00:55:37.120
01:00:26.080 : en:01:00:26.080
01:06:08.400 : en:01:06:08.400
01:10:47.200 : en:01:10:47.200
Скріншоти:


Запис/зведення: sergiyko


 Трекер:    Зареєстрований   

Завантажити / скачати мультфільм українською



відео для новачків



 Зареєстрований:   2018-11-11 17:19
 Розмір:   1.32 GB 
 Оцінка мультфільму:   9.8/10 (Голосів: 12)
   
Ваш часовий пояс: GMT + 2 Години

Нова тема   Відповісти