Бокс | Олександр Усик - Тоні Белью | Sky Sport HD (10.11.2018) 720p 50fps Ukr/Eng

Нові коментарі

Нова тема   Відповісти
Автор Повідомлення
sergiyko.5 
VIP


З нами з: 25.02.16
Востаннє: 12.08.20
Повідомлень: 3327

2018-11-11 13:56  
Бокс | Олександр Усик - Тоні Белью| Sky Sport HD (10.11.2018) 720p 50fps Ukr/Eng


Бокс | Олександр Усик - Тоні Белью | Sky Sport HD (10.11.2018) 720p 50fps Ukr/Eng

Жанр: Бокс
Країна: Великобританія
Телеканал: Sky Sport HD
Коментар: український (Інтер, Володимир Кобельков, Вячеслав Поночовний), англійський (Sky Sport HD)

Опис:
Manchester Arena, Ланкашир, Великобританія. Бій за титули чемпіона світу за версіями WBC, IBF, WBO и WBA Super в тяжкій вазі (до 90,7 кг)


Тривалість: 01:01:04
Якість:

Відео: кодек: розмір кадру: 1280 х 720 бітрейт: 3600 кб/с
Аудіо # 1: мова: українська кодек: 2.0 бітрейт: 192 кб/с
Аудіо # 2: мова: англійська кодек: MP2 бітрейт: 384 кб/с
Про файл:
General
Unique ID : 202910933867840438583172451820086551961 (0x98A7396F860B24A0230B00969F9CE599)
Complete name : G:\Torrents2\SPORT\Oleksandr.Usyk.vs.Tony.Bellew.2018-11-10.720p.HDTV.Ukr.Eng.
Format :
Format version : Version 4
File size : 1.79 GiB
Duration : 1 h 1 min
Overall bit rate : 4 193 kb/s
Encoded date : UTC 2018-11-11 10:50:26
Writing application : v28.1.0 ('Morning Child') 64-bit
Writing library : libebml v1.3.6 + v1.4.9

Video
ID : 1
Format : AVC
Format/Info : Advanced Video Codec
Format profile : [email protected]
Format settings : CABAC / 5 Ref Frames
Format settings, CABAC : Yes
Format settings, ReFrames : 5 frames
Codec ID : V_MPEG4/ISO/AVC
Duration : 1 h 1 min
Bit rate : 3 613 kb/s
Width : 1 280 pixels
Height : 720 pixels
Display aspect ratio : 16:9
Frame rate mode : Constant
Frame rate : 50.000 FPS
Color space : YUV
Chroma subsampling : 4:2:0
Bit depth : 8 bits
Scan type : Progressive
Bits/(Pixel*Frame) : 0.078
Stream size : 1.54 GiB (86%)
Writing library : core 157 r2932 303c484
Encoding settings : cabac=1 / ref=5 / deblock=1:0:0 / analyse=0x3:0x113 / me=hex / subme=8 / psy=1 / psy_rd=1.00:0.00 / mixed_ref=1 / me_range=16 / chroma_me=1 / trellis=2 / 8x8dct=1 / cqm=0 / deadzone=21,11 / fast_pskip=1 / chroma_qp_offset=-2 / threads=12 / lookahead_threads=2 / sliced_threads=0 / nr=0 / decimate=1 / interlaced=0 / bluray_compat=0 / constrained_intra=0 / bframes=3 / b_pyramid=2 / b_adapt=1 / b_bias=0 / direct=3 / weightb=1 / open_gop=0 / weightp=2 / keyint=250 / keyint_min=25 / scenecut=40 / intra_refresh=0 / rc_lookahead=50 / rc=crf / mbtree=1 / crf=23.0 / qcomp=0.60 / qpmin=0 / qpmax=69 / qpstep=4 / ip_ratio=1.40 / aq=1:1.00
Language : English
Default : Yes
Forced : No
Color range : Limited
Matrix coefficients : BT.709

Audio #1
ID : 2
Format : AC-3
Format/Info : Audio Coding 3
Commercial name : Dolby Digital
Codec ID : A_AC3
Duration : 1 h 1 min
Bit rate mode : Constant
Bit rate : 192 kb/s
Channel(s) : 2 channels
Channel layout : L R
Sampling rate : 48.0 kHz
Frame rate : 31.250 FPS (1536 SPF)
Bit depth : 16 bits
Compression mode : Lossy
Stream size : 83.9 MiB (5%)
Language : Ukrainian
Service kind : Complete Main
Default : Yes
Forced : Yes

Audio #2
ID : 3
Format : MPEG Audio
Format version : Version 1
Format profile : Layer 2
Codec ID : A_MPEG/L2
Codec ID/Hint : MP2
Duration : 1 h 1 min
Bit rate mode : Constant
Bit rate : 384 kb/s
Channel(s) : 2 channels
Sampling rate : 48.0 kHz
Frame rate : 41.667 FPS (1152 SPF)
Compression mode : Lossy
Stream size : 168 MiB (9%)
Language : English
Default : No
Forced : No
Скріншоти:
Запис/зведення: sergiyko


Золотий реліз (завантажене не впливає на рейтинг)
 Трекер:    Зареєстрований   

Завантажити / скачати торрент



відео для новачків



 Зареєстрований:   2018-11-11 13:56
 Розмір:   1.79 GB 
 Оцінка:   7.3/10 (Голосів: 7)
   
EvGaS 
Відео Гуртом - субтитрування
Відео Гуртом - субтитрування


З нами з: 27.02.12
Востаннє: 31.07.19
Повідомлень: 5668

2018-11-11 14:01  
sergiyko.5 
VIP


З нами з: 25.02.16
Востаннє: 12.08.20
Повідомлень: 3327

2018-11-11 14:04  
Запитай у VERUM (західні трекери), він робив ріп.
EvGaS 
Відео Гуртом - субтитрування
Відео Гуртом - субтитрування


З нами з: 27.02.12
Востаннє: 31.07.19
Повідомлень: 5668

2018-11-11 14:10  
sergiyko.5 написано:
Запитай у VERUM (західні трекери), він робив ріп.

Та просто суб’єктивно зара порівняю на око.

Додано через 3 хвилини 56 секунд:

sergiyko.5, ну, здається трохи сіпається не в ритм, тож навряд повністю чесні 50.
Але цей ріп — точно найкращий з трьох присутніх у митях швидких рухів. У ньому найменш мазанини у різкій зміні кадру.

+++
720p 50fps (найкращий ріп у русі, дещо затемнені кольори, рекомендую дивитись цей)
IPTV 1080i (25 »--> 50 к/с, середня якість, непогані кольори, сильно змазаний у різкому русі, пропущено значну вступну частину перед поєдинком)
DVBRip 576i 25fps (найгірший ріп на мою думку, якість у русі просто знищена як слово, перевага перед 1080і у кращому охопленні часу)

Ваш часовий пояс: GMT + 2 Години

Нова тема   Відповісти