Скарб нації: Книга Таємниць / National Treasure: Book of Secrets (2007) AVC 2xUkr/Eng | Sub Ukr/Eng

Нові коментарі

Нова тема   Відповісти
Автор Повідомлення
staf777 
Відео Гуртом - підтримка та поширення
Відео Гуртом - підтримка та поширення


З нами з: 16.11.16
Востаннє: 25.01.20
Повідомлень: 3363

2018-11-11 11:21  
Скарб нації: Книга Таємниць / National Treasure: Book of Secrets (2007) AVC 2xUkr/Eng | Sub Ukr/Eng

Скарб нації: Книга Таємниць / National Treasure: Book of Secrets (2007) AVC 2xUkr/Eng | Sub Ukr/Eng


Жанр: кримінальний, пригодницький, бойовик, комедія
Країна: США



Кінокомпанія: Walt Disney Pictures, Jerry Bruckheimer Films, Junction Entertainment
Режисер: Джон Тартелтауб / Jon Turteltaub
Актори: Ніколас Кейдж / Nicolas Cage, Дайан Крюґер / Diane Kruger, Джастін Барта / Justin Bartha, Джон Войґт / Jon Voight, Гелен Мірен / Helen Mirren, Ед Гарріс / Ed Harris, Брюс Ґрінвуд / Bruce Greenwood, Алісія Коппола / Alicia Coppola, Гарві Кейтел / Harvey Keitel та інші

Сюжет:
Мисливець за скарбами Бен Ґейтс виявляє таємницю, розгадка якої може привести до перегляду всієї історії США. Він відправляється на пошуки зниклих 18 сторінок з щоденника Джона Вїлкса, вбивці Авраама Лінкольна.


Тривалість: 02:04:32
Якість: AVC
Відео:
кодек:
розмір кадру: 1024x426
бітрейт: 2526 кб/с

Аудіо # 1:
мова: українська
переклад: професійний дубльований
кодек: 5.1
бітрейт: 384 кб/с

Аудіо # 2:
мова: українська
переклад: багатоголосий закадровий
кодек: 2.0
бітрейт: 192 кб/с

Аудіо # 3:
мова: англійська
переклад: оригінал
кодек: 5.1
бітрейт: 448 кб/с

Субтитри:
мова: українська
тип: програмні (м'які)
формат: *.srt

Субтитри:
мова: англійська
тип: програмні (м'які)
формат: *.srt
Info
General
Unique ID : 294959745338908920588065040128097845005 (0xDDE72E3B6393BB016010762F081AFF0D)
Complete name : S:\ National Treasure Book of Secrets [2007] (AVC) [2xUA][ENG][Hurtom].
Format :
Format version : Version 4 / Version 2
File size : 3.09 GiB
Duration : 2 h 4 min
Overall bit rate : 3 553 kb/s
Movie name : National Treasure: Book of Secrets [2007] (AVC) [2xUA][ENG][Hurtom]
Encoded date : UTC 2018-11-11 18:33:06
Writing application : v24.0.0 ('Beyond The Pale') 64-bit
Writing library : libebml v1.3.6 + v1.4.9
Cover : Yes
Attachments : cover.jpg

Video
ID : 1
Format : AVC
Format/Info : Advanced Video Codec
Format profile : [email protected]
Format settings : CABAC / 9 Ref Frames
Format settings, CABAC : Yes
Format settings, ReFrames : 9 frames
Codec ID : V_MPEG4/ISO/AVC
Duration : 2 h 4 min
Bit rate : 2 526 kb/s
Width : 1 024 pixels
Height : 426 pixels
Display aspect ratio : 2.40:1
Frame rate mode : Constant
Frame rate : 23.976 (24000/1001) FPS
Color space : YUV
Chroma subsampling : 4:2:0
Bit depth : 8 bits
Scan type : Progressive
Bits/(Pixel*Frame) : 0.242
Stream size : 2.20 GiB (71%)
Title : Rip by 0ptimus
Writing library : core 133 r2334 a3ac64b
Encoding settings : cabac=1 / ref=9 / deblock=1:-3:-3 / analyse=0x3:0x113 / me=umh / subme=11 / psy=1 / psy_rd=1.00:0.20 / mixed_ref=1 / me_range=48 / chroma_me=1 / trellis=2 / 8x8dct=1 / cqm=0 / deadzone=21,11 / fast_pskip=0 / chroma_qp_offset=-3 / threads=4 / lookahead_threads=1 / sliced_threads=0 / nr=0 / decimate=0 / interlaced=0 / bluray_compat=0 / constrained_intra=0 / bframes=10 / b_pyramid=2 / b_adapt=2 / b_bias=0 / direct=3 / weightb=1 / open_gop=0 / weightp=2 / keyint=240 / keyint_min=23 / scenecut=40 / intra_refresh=0 / rc_lookahead=40 / rc=2pass / mbtree=0 / bitrate=2526 / ratetol=1.0 / qcomp=0.60 / qpmin=0 / qpmax=69 / qpstep=4 / cplxblur=20.0 / qblur=0.5 / vbv_maxrate=50000 / vbv_bufsize=50000 / nal_hrd=none / ip_ratio=1.40 / pb_ratio=1.30 / aq=1:1.00
Language : English
Default : Yes
Forced : Yes

Audio #1
ID : 2
Format : AC-3
Format/Info : Audio Coding 3
Codec ID : A_AC3
Duration : 2 h 4 min
Bit rate mode : Constant
Bit rate : 384 kb/s
Channel(s) : 6 channels
Channel positions : Front: L C R, Side: L R, LFE
Sampling rate : 48.0 kHz
Frame rate : 31.250 FPS (1536 SPF)
Bit depth : 16 bits
Compression mode : Lossy
Stream size : 342 MiB (11%)
Title : [UA-DUB]
Language : Ukrainian
Service kind : Complete Main
Default : Yes
Forced : Yes

Audio #2
ID : 3
Format : AC-3
Format/Info : Audio Coding 3
Codec ID : A_AC3
Duration : 2 h 4 min
Bit rate mode : Constant
Bit rate : 192 kb/s
Channel(s) : 2 channels
Channel positions : Front: L R
Sampling rate : 48.0 kHz
Frame rate : 31.250 FPS (1536 SPF)
Bit depth : 16 bits
Compression mode : Lossy
Stream size : 171 MiB (5%)
Title : [UA-MVO]
Language : Ukrainian
Service kind : Complete Main
Default : No
Forced : No

Audio #3
ID : 4
Format : AC-3
Format/Info : Audio Coding 3
Codec ID : A_AC3
Duration : 2 h 4 min
Bit rate mode : Constant
Bit rate : 448 kb/s
Channel(s) : 6 channels
Channel positions : Front: L C R, Side: L R, LFE
Sampling rate : 48.0 kHz
Frame rate : 31.250 FPS (1536 SPF)
Bit depth : 16 bits
Compression mode : Lossy
Stream size : 399 MiB (13%)
Language : English
Service kind : Complete Main
Default : No
Forced : No

Text #1
ID : 5
Format : UTF-8
Codec ID : S_TEXT/UTF8
Codec ID/Info : UTF-8 Plain Text
Duration : 1 h 57 min
Bit rate : 1 b/s
Count of elements : 39
Stream size : 1.46 KiB (0%)
Title : [Forced]
Language : Ukrainian
Default : Yes
Forced : Yes

Text #2
ID : 6
Format : UTF-8
Codec ID : S_TEXT/UTF8
Codec ID/Info : UTF-8 Plain Text
Duration : 1 h 57 min
Bit rate : 106 b/s
Count of elements : 1501
Stream size : 91.6 KiB (0%)
Language : Ukrainian
Default : No
Forced : No

Text #3
ID : 7
Format : UTF-8
Codec ID : S_TEXT/UTF8
Codec ID/Info : UTF-8 Plain Text
Duration : 1 h 55 min
Bit rate : 66 b/s
Count of elements : 1502
Stream size : 56.7 KiB (0%)
Language : English
Default : No
Forced : No






taraskill1 - зведення. OlegCena, SalCom - запис.

Джерело: &
Особиста оцінка: 8 - мені сподобалося
Скарб нації: Книга Таємниць / National Treasure: Book of Secrets (2007) AVC 2xUkr/Eng | Sub Ukr/Eng
Скарб нації: Книга Таємниць / National Treasure: Book of Secrets (2007) AVC 2xUkr/Eng | Sub Ukr/Eng


 Трекер:    Зареєстрований   

Завантажити / скачати фільм українською



відео для новачків



 Зареєстрований:   2018-11-11 22:06
 Розмір:   3.09 GB 
 Оцінка фільму:   7.8/10 (Голосів: 13)
   
bot 
робот


З нами з: 30.09.07
Востаннє: 26.05.05
Повідомлень: 23061

2018-11-11 22:06  
Тему перенесено з Анонси релізів до форуму Фільми


staf777

omm 
Відео Гуртом - фільмокрай
Відео Гуртом - фільмокрай


З нами з: 12.06.12
Востаннє: 25.01.20
Повідомлень: 2347

2018-11-15 19:41  
В дитинстві дилогія "Скарбів нації" була серед улюблених фільмів. Та й зараз враження досить-таки позитивне. Цікаве, видовищне, динамічне кіно - те, що треба для гарного вечора. Але звісно ж дивитись після першої частини Happy
westigo 
Свій


З нами з: 07.04.19
Востаннє: 19.01.20
Повідомлень: 137

2019-04-14 14:47  
Ця частина веселіше) погоні відмінні. і Ед Харріс лиходій що треба)
dreamer 
VIP


З нами з: 10.05.08
Востаннє: 25.01.20
Повідомлень: 563

2019-04-16 21:01  
Позитивне кіно..можна дивитися кілька разів й задоволення забезпечене..Дякую..
Ваш часовий пояс: GMT + 2 Години

Нова тема   Відповісти