Скарб нації: Книга Таємниць / National Treasure: Book of Secrets (2007) 1080p 2xUkr/Eng | Sub Ukr/Eng

Нові коментарі

Нова тема   Відповісти
Автор Повідомлення
staf777 
Відео Гуртом - підтримка та поширення
Відео Гуртом - підтримка та поширення


З нами з: 16.11.16
Востаннє: 09.12.19
Повідомлень: 3039

2018-11-11 10:49  
Скарб нації: Книга Таємниць / National Treasure: Book of Secrets (2007) 1080p 2xUkr/Eng | Sub Ukr/Eng

Скарб нації: Книга Таємниць / National Treasure: Book of Secrets (2007) 1080p 2xUkr/Eng | Sub Ukr/Eng


Жанр: кримінальний, пригодницький, бойовик, комедія
Країна: США



Кінокомпанія: Walt Disney Pictures, Jerry Bruckheimer Films, Junction Entertainment
Режисер: Джон Тартелтауб / Jon Turteltaub
Актори: Ніколас Кейдж / Nicolas Cage, Дайан Крюґер / Diane Kruger, Джастін Барта / Justin Bartha, Джон Войґт / Jon Voight, Гелен Мірен / Helen Mirren, Ед Гарріс / Ed Harris, Брюс Ґрінвуд / Bruce Greenwood, Алісія Коппола / Alicia Coppola, Гарві Кейтел / Harvey Keitel та інші

Сюжет:
Мисливець за скарбами Бен Ґейтс виявляє таємницю, розгадка якої може привести до перегляду всієї історії США. Він відправляється на пошуки зниклих 18 сторінок з щоденника Джона Вїлкса, вбивці Авраама Лінкольна.


Тривалість: 02:04:32
Якість: 1080p
Відео:
кодек:
розмір кадру: 1920x800
бітрейт: 12.0 Mб/с

Аудіо # 1:
мова: українська
переклад: професійний дубльований
кодек: 5.1
бітрейт: 384 кб/с

Аудіо # 2:
мова: українська
переклад: багатоголосий закадровий
кодек: 2.0
бітрейт: 192 кб/с

Аудіо # 3:
мова: англійська
переклад: оригінал
кодек: 5.1
бітрейт: 640 кб/с

Субтитри:
мова: українська
тип: програмні (м'які)
формат: *.srt

Субтитри:
мова: англійська
тип: програмні (м'які)
формат: *.srt
Info
General
Unique ID : 228033353546307509899488744450387981730 (0xAB8DA05B2F9BC58D101C3338929DB5A2)
Complete name : N:\Фільми HD\Пригодницький\National Treasure Book of Secrets (2007) (1080p) [2xUkr][Eng] [Hurtom].
Format :
Format version : Version 4 / Version 2
File size : 11.5 GiB
Duration : 2 h 4 min
Overall bit rate : 13.2 Mb/s
Movie name : National Treasure: Book of Secrets (2007) (1080p) [2xUkr][Eng] [Hurtom]
Encoded date : UTC 2018-11-11 07:30:38
Writing application : v24.0.0 ('Beyond The Pale') 64-bit
Writing library : libebml v1.3.6 + v1.4.9
Cover : Yes
Attachments : cover.jpg

Video
ID : 1
Format : AVC
Format/Info : Advanced Video Codec
Format profile : [email protected]
Format settings : CABAC / 5 Ref Frames
Format settings, CABAC : Yes
Format settings, ReFrames : 5 frames
Codec ID : V_MPEG4/ISO/AVC
Duration : 2 h 4 min
Bit rate : 12.0 Mb/s
Width : 1 920 pixels
Height : 800 pixels
Display aspect ratio : 2.40:1
Frame rate mode : Constant
Frame rate : 23.976 (24000/1001) FPS
Color space : YUV
Chroma subsampling : 4:2:0
Bit depth : 8 bits
Scan type : Progressive
Bits/(Pixel*Frame) : 0.326
Stream size : 10.4 GiB (91%)
Title : Release by Alex260680
Writing library : core 148 r2597 e86f3a1
Encoding settings : cabac=1 / ref=5 / deblock=1:-3:-3 / analyse=0x3:0x133 / me=umh / subme=11 / psy=1 / psy_rd=1.05:0.00 / mixed_ref=1 / me_range=48 / chroma_me=1 / trellis=2 / 8x8dct=1 / cqm=0 / deadzone=21,11 / fast_pskip=0 / chroma_qp_offset=-2 / threads=6 / lookahead_threads=1 / sliced_threads=0 / nr=0 / decimate=0 / interlaced=0 / bluray_compat=0 / constrained_intra=0 / bframes=9 / b_pyramid=2 / b_adapt=2 / b_bias=0 / direct=3 / weightb=1 / open_gop=0 / weightp=2 / keyint=240 / keyint_min=23 / scenecut=40 / intra_refresh=0 / rc=2pass / mbtree=0 / bitrate=12002 / ratetol=1.0 / qcomp=0.60 / qpmin=0 / qpmax=69 / qpstep=4 / cplxblur=20.0 / qblur=0.5 / ip_ratio=1.40 / pb_ratio=1.30 / aq=1:0.80
Language : English
Default : Yes
Forced : No

Audio #1
ID : 2
Format : AC-3
Format/Info : Audio Coding 3
Codec ID : A_AC3
Duration : 2 h 4 min
Bit rate mode : Constant
Bit rate : 384 kb/s
Channel(s) : 6 channels
Channel positions : Front: L C R, Side: L R, LFE
Sampling rate : 48.0 kHz
Frame rate : 31.250 FPS (1536 SPF)
Bit depth : 16 bits
Compression mode : Lossy
Stream size : 342 MiB (3%)
Title : [UA-DUB]
Language : Ukrainian
Service kind : Complete Main
Default : Yes
Forced : Yes

Audio #2
ID : 3
Format : AC-3
Format/Info : Audio Coding 3
Codec ID : A_AC3
Duration : 2 h 4 min
Bit rate mode : Constant
Bit rate : 192 kb/s
Channel(s) : 2 channels
Channel positions : Front: L R
Sampling rate : 48.0 kHz
Frame rate : 31.250 FPS (1536 SPF)
Bit depth : 16 bits
Compression mode : Lossy
Stream size : 171 MiB (1%)
Title : [UA-MVO]
Language : Ukrainian
Service kind : Complete Main
Default : No
Forced : No

Audio #3
ID : 4
Format : AC-3
Format/Info : Audio Coding 3
Codec ID : A_AC3
Duration : 2 h 4 min
Bit rate mode : Constant
Bit rate : 640 kb/s
Channel(s) : 6 channels
Channel positions : Front: L C R, Side: L R, LFE
Sampling rate : 48.0 kHz
Frame rate : 31.250 FPS (1536 SPF)
Bit depth : 16 bits
Compression mode : Lossy
Stream size : 570 MiB (5%)
Title : Original
Language : English
Service kind : Complete Main
Default : No
Forced : No

Text #1
ID : 5
Format : UTF-8
Codec ID : S_TEXT/UTF8
Codec ID/Info : UTF-8 Plain Text
Duration : 1 h 57 min
Bit rate : 106 b/s
Count of elements : 1501
Stream size : 91.6 KiB (0%)
Language : Ukrainian
Default : No
Forced : No

Text #2
ID : 6
Format : UTF-8
Codec ID : S_TEXT/UTF8
Codec ID/Info : UTF-8 Plain Text
Duration : 1 h 55 min
Bit rate : 67 b/s
Count of elements : 1453
Stream size : 57.3 KiB (0%)
Title : Full
Language : English
Default : No
Forced : No

Menu
00:00:00.000 : en:The War Is Over
00:04:59.340 : en:The Missing Page
00:08:27.215 : en:Breaking In
00:16:55.723 : en:The Debt That All Men Pay
00:22:01.945 : en:The Lady's Clue
00:26:03.395 : en:Making a Scene at the Palace
00:36:47.038 : en:The Streets of London
00:43:02.913 : en:Meeting Dr. Appleton
00:50:14.010 : en:A Date at the White House
00:55:27.907 : en:Riley's Theory
01:00:01.389 : en:Happy Birthday, Mr. President
01:11:22.987 : en:The Book of Secrets
01:20:14.017 : en:Another Translation
01:24:42.744 : en:An Island of Stone
01:30:41.269 : en:Only One Way Out
01:40:07.334 : en:The City of Gold
01:47:17.889 : en:Escaping Cibola
01:57:20.533 : en:End Credits





taraskill1 - зведення. OlegCena, SalCom - запис.

Джерело: &
Особиста оцінка: 8 - мені сподобалося
Скарб нації: Книга Таємниць / National Treasure: Book of Secrets (2007) 1080p 2xUkr/Eng | Sub Ukr/Eng
Скарб нації: Книга Таємниць / National Treasure: Book of Secrets (2007) 1080p 2xUkr/Eng | Sub Ukr/Eng


 Трекер:    Зареєстрований   

Завантажити / скачати фільм українською



відео для новачків



 Зареєстрований:   2018-11-11 10:49
 Розмір:   11.5 GB 
 Оцінка фільму:   8.8/10 (Голосів: 12)
   
MakRA 
VIP


З нами з: 10.11.18
Востаннє: 09.12.19
Повідомлень: 591

2018-11-12 00:23  
Дякую!! Саме вчасно)
westigo 
Свій


З нами з: 07.04.19
Востаннє: 08.12.19
Повідомлень: 118

2019-04-14 14:47  
ця частина веселіше) погоні відмінні. і Ед Харріс лиходій що треба)
Ваш часовий пояс: GMT + 2 Години

Нова тема   Відповісти