Бокс | Олександр Усик - Тоні Белью | Polsat Sport HD (10.11.2018) IPTV 1080i Ukr/Pol

Нові коментарі

Нова тема   Відповісти
Автор Повідомлення
sergiyko.5 
Попереджень: 1
Попереджень: 1 


З нами з: 25.02.16
Востаннє: 23.09.20
Повідомлень: 3454

2018-11-11 11:33  
Бокс | Олександр Усик - Тоні Белью (10.11.2018) IPTV 1080i Ukr/Pol

Бокс | Олександр Усик - Тоні Белью | Polsat Sport HD (10.11.2018) IPTV 1080i Ukr/Pol

Жанр: Бокс
Країна: Великобританія
Телеканал: Polsat Sport HD
Коментар: український (Інтер), польський (Polsat Sport HD)

Опис:
Manchester Arena, Ланкашир, Великобританія. Бій за титули чемпіона світу за версіями WBC, IBF, WBO и WBA Super в тяжкій вазі (до 90,7 кг)


Тривалість: 00:40:14
Якість: IPTV

Відео: кодек: розмір кадру: 1920 х 1080 бітрейт: 6700 кб/с
Аудіо # 1: мова: українська кодек: 2.0 бітрейт: 160 кб/с
Аудіо # 2: мова: польська кодек: MP3 бітрейт: 128 кб/с
Про файл:
General
Unique ID : 234474431238365073704009499461421101731 (0xB06622013EFD96CD524AA522832FF2A3)
Complete name : G:\Torrents2\SPORT\Oleksandr Usyk vs Tony Bellew.11-11-2018.1080p.IPTV.
Format :
Format version : Version 4
File size : 1.99 GiB
Duration : 40 min 15 s
Overall bit rate : 7 079 kb/s
Encoded date : UTC 2018-11-11 09:48:38
Writing application : v28.1.0 ('Morning Child') 64-bit
Writing library : libebml v1.3.6 + v1.4.9

Video
ID : 1
Format : AVC
Format/Info : Advanced Video Codec
Format profile : [email protected]
Format settings : CABAC / 4 Ref Frames
Format settings, CABAC : Yes
Format settings, ReFrames : 4 frames
Codec ID : V_MPEG4/ISO/AVC
Duration : 40 min 14 s
Bit rate : 6 790 kb/s
Width : 1 920 pixels
Height : 1 080 pixels
Display aspect ratio : 16:9
Frame rate mode : Variable
Frame rate : 50.000 FPS
Original frame rate : 25.000 FPS
Color space : YUV
Chroma subsampling : 4:2:0
Bit depth : 8 bits
Scan type : Interlaced
Scan type, store method : Separated fields
Scan order : Top Field First
Bits/(Pixel*Frame) : 0.065
Stream size : 1.91 GiB (96%)
Language : English
Default : Yes
Forced : No
Color range : Limited
Color primaries : BT.709
Transfer characteristics : BT.709
Matrix coefficients : BT.709

Audio #1
ID : 2
Format : AC-3
Format/Info : Audio Coding 3
Commercial name : Dolby Digital
Codec ID : A_AC3
Duration : 40 min 15 s
Bit rate mode : Constant
Bit rate : 160 kb/s
Channel(s) : 2 channels
Channel layout : L R
Sampling rate : 48.0 kHz
Frame rate : 31.250 FPS (1536 SPF)
Bit depth : 16 bits
Compression mode : Lossy
Delay relative to video : -280 ms
Stream size : 46.1 MiB (2%)
Title : Інтер
Language : Ukrainian
Service kind : Complete Main
Default : Yes
Forced : Yes

Audio #2
ID : 3
Format : MPEG Audio
Format version : Version 1
Format profile : Layer 3
Format settings : Joint stereo / MS Stereo
Codec ID : A_MPEG/L3
Codec ID/Hint : MP3
Duration : 40 min 15 s
Bit rate mode : Constant
Bit rate : 128 kb/s
Channel(s) : 2 channels
Sampling rate : 48.0 kHz
Frame rate : 41.667 FPS (1152 SPF)
Compression mode : Lossy
Delay relative to video : -280 ms
Stream size : 36.9 MiB (2%)
Title : Polsat Sport HD
Language : Polish
Default : No
Forced : No
Скріншоти:
Запис: vecha196
Зведення: sergiyko


Золотий реліз (завантажене не впливає на рейтинг)
 Трекер:    Зареєстрований   

Завантажити / скачати торрент



відео для новачків



 Зареєстрований:   2018-11-11 12:52
 Розмір:   1.99 GB 
 Оцінка:   8.9/10 (Голосів: 8)
   
star-space 
Частий відвідувач


З нами з: 22.12.17
Востаннє: 23.09.20
Повідомлень: 41

2018-11-11 12:27  
Логотип каналу зверху і лічильник часу зліва внизу - це ті елементи на екрані, які ще можна назвати HD, все решта наче апскейл. Наш прокацапський 112-й краще виглядає.
sergiyko.5 
Попереджень: 1
Попереджень: 1 


З нами з: 25.02.16
Востаннє: 23.09.20
Повідомлень: 3454

2018-11-11 12:32  
Дивись інтер, хтось забороняє.
povudlo 
Новенький


З нами з: 17.09.14
Востаннє: 22.09.20
Повідомлень: 21

2018-11-11 12:43  
Після 14:20 хвилини звук пропадає повністю на українській доріжці
sergiyko.5 
Попереджень: 1
Попереджень: 1 


З нами з: 25.02.16
Востаннє: 23.09.20
Повідомлень: 3454

2018-11-11 12:53  
povudlo написано:
Після 14:20 хвилини звук пропадає повністю на українській доріжці

Так, вже виправляється, зараз перезаливаю торент.

Додано через 3 хвилини 21 секунду:

Файл виправлено.

EvGaS 
Відео Гуртом - субтитрування
Відео Гуртом - субтитрування


З нами з: 27.02.12
Востаннє: 31.07.19
Повідомлень: 5668

2018-11-11 13:56  
sergiyko.5 написано:
Дивись інтер, хтось забороняє.

Краще не тре. Wide grin
https://toloka.to/t96354#1042422

star-space написано:
Логотип каналу зверху і лічильник часу зліва внизу - це ті елементи на екрані, які ще можна назвати HD, все решта наче апскейл.

Ну так і видно, судячи зі скрінів. Та чіткість все ж краща за інший реліз. Як і розподілення кольорів.
Єдине що бентежить останній скрін, бо не вантажив, і не знаю, наскільки змазується воно в русі порівняно з іншим релізом, який хоч і не дуже, та різкі рухи нормально наче відпрацював на свою якість та кадри/сек. Хоча й деякі миті з таким записом важко було помітити, бо деякі удари можна сказати що проскакували поміж кадрами: тут вже потрібен якісний багатокадровий запис, а не зі звичних діапазонів 25-30 на секунду, яких просто не вистачає нервано захопити удар.

+++
720p 50fps (найкращий ріп у русі, дещо затемнені кольори, рекомендую дивитись цей)
IPTV 1080i (25 »--> 50 к/с, середня якість, непогані кольори, сильно змазаний у різкому русі, пропущено значну вступну частину перед поєдинком)
DVBRip 576i 25fps (найгірший ріп на мою думку, якість у русі просто знищена як слово, перевага перед 1080і у кращому охопленні часу)

Ваш часовий пояс: GMT + 2 Години

Нова тема   Відповісти