Царство небесне [Театральна версія] / Kingdom of Heaven [Theatrical Cut] (2005) Remux 1080p Ukr/Eng | Sub Eng

Нові коментарі

Нова тема   Відповісти
Останній раз роздавалося romiv (2020-08-29)
Автор Повідомлення
Anonymous 







2018-11-11 10:54  
Царство небесне [Театральна версія] / Kingdom of Heaven [Theatrical Cut] (2005) Remux 1080p Ukr/Eng | Sub Eng

Царство небесне [Театральна версія] / Kingdom of Heaven [Theatrical Cut] (2005) Remux 1080p Ukr/Eng | Sub Eng


Жанр: пригодницький, історичний, бойовик, драма
Країна: США, Велика Британія



Кінокомпанія: 20th Century Fox
Режисер: Рідлі Скотт
Актори: Орландо Блум, Едвард Нортон, Єва Грін, Джеремі Айронс, Ліам Нісон, Александр Сіддінг, Мартон Ксокас, Девід Тьюліс

Сюжет:
Події фільму відбуваються в середні віки у часи хрестових походів – період 200-літніх сутичок між Європою і Сходом. Коваль на імя Баліан втратив свою сім'ю та віру. Релігійні війни, що вирують у далекій Святій землі, видаються йому далекими і чужими. Але доля знаходить Баліана у вигляді лицаря хрестоносця Годфрі Д'Ібеліна, який на деякий час повертається додому у Францію, подалі від бойових дій на сході. Він виявляється батьком Баліана. Годфрі показує йому справжнє значення лицарства і бере з собою в подорож по континентах, до легендарного Священного міста. В Єрусалимі в цей час - в період між другим і третім Хрестовими походами - панує хиткий мир, завдяки зусиллям освіченого християнського короля Балдуїна IV, і військовій стриманості легендарного мусульманського лідера Саладіна.Серед пишнот та інтриг середньовічного Єрусалиму Баліан закохується, перетворюється на лідера, і в кінцевому рахунку, використовує всю свою мужність і майстерність, щоб захистити місто від ворогів


Тривалість: 02:24:33
Якість: Remux
Відео:
кодек:
розмір кадру: 1920x1080
бітрейт: 27,6 Mb/s

Аудіо # 1:
мова: українська
переклад: професійний дубльований
кодек: 2.0
бітрейт: 192 кб/с

Аудіо # 2:
мова: англійська
переклад: оригінал
кодек: 5.1
бітрейт: 448 кб/с

Аудіо # 3:
мова: англійська
переклад: оригінал
кодек: -HD MA 5.1
бітрейт: 3840 kb/s

Джерело озвучення:


Субтитри:
мова: англійська
тип: пререндерні
формат: *.pgs
Info
Format :
Format version : Version 4 / Version 2
File size : 32.4 GiB
Duration : 2 h 24 min
Overall bit rate mode : Variable
Overall bit rate : 32.1 Mb/s
Movie name : Царство небесне / Kingdom of Heaven
Encoded date : UTC 2018-11-11 07:06:29
Writing application : v28.2.0 ('The Awakening') 64-bit
Writing library : libebml v1.3.6 + v1.4.9

Video
ID : 1
Format : AVC
Format/Info : Advanced Video Codec
Format profile : [email protected]
Format settings, CABAC : Yes
Format settings, ReFrames : 2 frames
Codec ID : V_MPEG4/ISO/AVC
Duration : 2 h 24 min
Bit rate mode : Variable
Bit rate : 27.6 Mb/s
Width : 1 920 pixels
Height : 1 080 pixels
Display aspect ratio : 16:9
Frame rate mode : Constant
Frame rate : 23.976 (24000/1001) FPS
Color space : YUV
Chroma subsampling : 4:2:0
Bit depth : 8 bits
Scan type : Progressive
Bits/(Pixel*Frame) : 0.554
Stream size : 27.8 GiB (86%)
Title : MPEG-4p/AVC/, 1080p, High Profile
Default : Yes
Forced : Yes

Audio #1
ID : 2
Format : AC-3
Format/Info : Audio Coding 3
Mode extension : CM (complete main)
Format settings, Endianness : Big
Codec ID : A_AC3
Duration : 2 h 24 min
Bit rate mode : Constant
Bit rate : 192 kb/s
Channel(s) : 2 channels
Channel positions : Front: L R
Sampling rate : 48.0 kHz
Frame rate : 31.250 FPS (1536 spf)
Bit depth : 16 bits
Compression mode : Lossy
Stream size : 199 MiB (1%)
Title : Українська, 1+1, AC-3, 192 kbps
Language : Ukrainian
Default : Yes
Forced : Yes

Audio #2
ID : 3
Format : AC-3
Format/Info : Audio Coding 3
Mode extension : CM (complete main)
Format settings, Endianness : Big
Codec ID : A_AC3
Duration : 2 h 24 min
Bit rate mode : Constant
Bit rate : 448 kb/s
Channel(s) : 6 channels
Channel positions : Front: L C R, Side: L R, LFE
Sampling rate : 48.0 kHz
Frame rate : 31.250 FPS (1536 spf)
Bit depth : 16 bits
Compression mode : Lossy
Stream size : 463 MiB (1%)
Title : English, Original, AC-3, 448 kbps
Language : English
Default : No
Forced : No

Audio #3
ID : 4
Format :
Format/Info : Digital Theater Systems
Format profile : MA / Core
Mode : 16
Format settings, Endianness : Big
Codec ID : A_DTS
Duration : 2 h 24 min
Bit rate mode : Variable / Constant
Bit rate : 3 840 kb/s / 1 509 kb/s
Channel(s) : 6 channels
Channel positions : Front: L C R, Side: L R, LFE
Sampling rate : 48.0 kHz
Frame rate : 93.750 FPS (512 spf)
Bit depth : 24 bits
Compression mode : Lossless / Lossy
Stream size : 3.94 GiB (12%)
Title : English, Original, -HD MA, 3905 kbps
Language : English
Default : No
Forced : No

Text
ID : 5
Format : PGS
Codec ID : S_HDMV/PGS
Codec ID/Info : Picture based subtitle format used on BDs/HD-DVDs
Duration : 2 h 21 min
Bit rate : 14.1 kb/s
Count of elements : 1578
Stream size : 14.3 MiB (0%)
Title : English, Full
Language : English
Default : No
Forced : No

Menu
00:00:00.000 : :Розділ 01
00:03:34.547 : :Розділ 02
00:08:35.181 : :Розділ 03
00:10:32.965 : :Розділ 04
00:11:58.175 : :Розділ 05
00:13:33.062 : :Розділ 06
00:19:05.769 : :Розділ 07
00:20:22.846 : :Розділ 08
00:22:38.732 : :Розділ 09
00:24:09.739 : :Розділ 10
00:26:51.109 : :Розділ 11
00:29:34.773 : :Розділ 12
00:33:17.328 : :Розділ 13
00:36:29.520 : :Розділ 14
00:40:32.596 : :Розділ 15
00:44:21.742 : :Розділ 16
00:47:01.235 : :Розділ 17
00:49:22.501 : :Розділ 18
00:52:48.915 : :Розділ 19
00:56:24.005 : :Розділ 20
00:58:12.530 : :Розділ 21
01:02:38.629 : :Розділ 22
01:07:38.471 : :Розділ 23
01:08:52.878 : :Розділ 24
01:12:11.493 : :Розділ 25
01:14:52.154 : :Розділ 26
01:16:50.397 : :Розділ 27
01:21:21.042 : :Розділ 28
01:23:50.692 : :Розділ 29
01:26:46.326 : :Розділ 30
01:29:56.891 : :Розділ 31
01:33:28.436 : :Розділ 32
01:35:09.995 : :Розділ 33
01:37:17.122 : :Розділ 34
01:39:04.980 : :Розділ 35
01:42:52.040 : :Розділ 36
01:44:58.959 : :Розділ 37
01:48:54.736 : :Розділ 38
01:54:58.683 : :Розділ 39
01:58:56.754 : :Розділ 40
02:01:05.424 : :Розділ 41
02:04:12.319 : :Розділ 42
02:09:30.679 : :Розділ 43
02:11:16.952 : :Розділ 44
02:12:33.904 : :Розділ 45
02:15:36.294 : :Розділ 46
Скріншоти
Джерело:
Особиста оцінка: 10 - без зайвих вагань рекомендую всім!


Золотий реліз (завантажене не впливає на рейтинг)
 Трекер:    Зареєстрований   

Завантажити / скачати фільм українською



відео для новачків



 Зареєстрований:   2018-11-11 10:54
 Розмір:   32.44 GB 
 Оцінка фільму:   10/10 (Голосів: 5)
   
Інші релізи
   Царство небесне [Режисерська версія] / Kingdom of Heaven [Director's cut] (2005) 1080p H.265 Ukr/Eng | Sub Ukr/Eng -Star-Lord-  5 / 0   13.59 GB   2020-05-10 19:56 
   Царство небесне [Режисерська версія] / Kingdom of Heaven [Director's cut] (2005) Remux 1080p Ukr/Eng | Sub Ukr/Eng kryk-v.ya.  4 / 0   39.29 GB   2018-12-05 19:37 
   Царство небесне [Театральна версія] / Kingdom of Heaven [Theatrical Cut] (2005) AVC Ukr/Eng | Sub Eng BASTERD-94  6 / 0   2.31 GB   2016-01-31 21:30 
   Царство небесне [Театральна версія] / Kingdom of Heaven [Theatrical Cut] (2005) patriot2305  6 / 0   1.46 GB   2015-12-05 22:44 
   Царство небесне [Режисерська версія] / Kingdom of Heaven [Director's cut] (2005) 1080p Ukr/Eng | Sub Ukr/Eng igor911  17 / 0   10.95 GB   2013-06-07 12:33 
   Царство небесне [Театральна версія] / Kingdom of Heaven [Theatrical Cut] (2005) 1080р Ukr/Eng pyatachok  3 / 0   9.58 GB   2013-04-18 23:14 
   Царство небесне [Театральна версія] / Kingdom of Heaven [Theatrical Cut] (2005) 720р Ukr/Eng pyatachok  4 / 0   4.37 GB   2013-04-18 14:31 
   Царство небесне [Режисерська версія] / Kingdom of Heaven [Director's cut] (2005) Ukr/Eng | Sub Ukr/Eng patriot2305  5 / 0   2.19 GB   2013-03-30 20:14 
   Царство небесне [Режисерська версія] / Kingdom of Heaven [Director's cut] (2005) 720p Ukr/Eng | Sub Ukr/Eng braveboy  12 / 0   4.38 GB   2011-06-07 22:47 
   Царство небесне [Режисерська версія] / Kingdom of Heaven [Director's cut] (2005) Ukr/Eng | Sub Ukr/Eng Givi  4 / 0   3.25 GB   2011-02-20 09:52 
Oleksa9 
VIP


З нами з: 17.05.12
Востаннє: 26.09.20
Повідомлень: 412

2018-11-23 21:50  
Режисерську б версію у такій якості....
Ваш часовий пояс: GMT + 2 Години

Нова тема   Відповісти