Будинок-монстр / Monster House (2006) AVC Ukr/Eng | Sub Ukr/Eng

Нові коментарі

Нова тема   Відповісти
Автор Повідомлення
staf777 
Відео Гуртом - підтримка та поширення
Відео Гуртом - підтримка та поширення


З нами з: 16.11.16
Востаннє: 30.10.20
Повідомлень: 4249

2018-11-11 08:50  
Будинок-монстр / Monster House (2006) AVC Ukr/Eng | Sub Ukr/Eng



Альтернативні та оригінальні постери




повнорозмірні скріншоти відкриваються по кліку (з натиснутим CTRL чи кліком середньою кнопкою мишки - у іншій вкладці)


Жанр: анімація, фентезі, комедія, детектив, сімейний
Країна: США



Кінокомпанія: Columbia Pictures, Relativity Media, ImageMovers, Amblin Entertainment, Sony Pictures Animation
Режисер: Джил Кенан / Gil Kenan
В оригіналі ролі озвучили: Мітчел Муссо / Mitchel Musso, Сем Лернер / Sam Lerner, Спенсер Лок / Spencer Locke, Стів Бушемі / Steve Buscemi, Нік Кеннон / Nick Cannon, Меггі Джиленгол / Maggie Gyllenhaal, Кевін Джеймс / Kevin James, Джейсон Лі / Jason Lee, Катерін О'Хара / Catherine O'Hara, Кетлін Тернер / Kathleen Turner, Фред Віллард / Fred Willard, Раян Ньоюман / Ryan Newman, Вуді Шульц / Woody Schultz та інші

Сюжет:
Добре бути хлопчаком. Кожен день, як усе життя! Стільки всього навколо: дівчата, морозиво, бійки, підручники, футбол. Насичений день, коротше, виходить. А от якщо ти одного разу виявив, що будинок, який стоїть по сусідству з будинком твоєї сім'ї - зовсім не будинок ... А простіше кажучи - монстр. Чудовисько, загалом. Отакі справи.

Ну от, історія ця про те, як три приятелі, ДіДжей, Чедер та Дженні, виявили, що будинок, що знаходиться неподалік, справжнісінький монстр. Тільки ніхто їм не вірив. Мало чого понавидумують діти ... Тільки даремно вони так. Хлопці їх попереджали ...


Рейтинг MPAA: PG - рекомендується присутність батьків
Вікова категорія: 10+

Тривалість: 01:30:38
Якість: AVC
Відео:
кодек:
розмір кадру: 1024 х 432
бітрейт: 1849 кбіт/с

Аудіо # 1:
мова: українська
переклад: багатоголосий закадровий
кодек: 5.1
бітрейт: 448 кбіт/с

Аудіо # 2:
мова: англійська
переклад: оригінал
кодек: 5.1
бітрейт: 192 кбіт/с

Субтитри # 1:
мова: українська
тип: програмні (м'які)
формат: *.srt

Субтитри # 2:
мова: англійська
тип: програмні (м'які)
формат: *.srt

Збережено оригінальні розділи, як на Blu-ray.
Info
Код:
General
Unique ID                   : 85293232638540688082028584730905296738 (0x402AE10B55DFFAB2499B931103A43F62)
Complete name               : S:\ Monster House (2006) [Ukr,Eng sub.Ukr,Eng] AVC [Hurtom].
Format                      :
Format version              : Version 4 / Version 2
File size                   : 1.58 GiB
Duration                    : 1 h 30 min
Overall bit rate            : 2 489 kb/s
Movie name                  :  Monster House (2006) [Ukr,Eng sub.Ukr,Eng] AVC [Hurtom]
Encoded date                : UTC 2018-11-11 06:31:35
Writing application         : v24.0.0 ('Beyond The Pale') 64-bit
Writing library             : libebml v1.3.6 + v1.4.9
Cover                       : Yes
Attachments                 : cover.jpg

Video
ID                          : 1
Format                      : AVC
Format/Info                 : Advanced Video Codec
Format profile              : [email protected]
Format settings             : CABAC / 8 Ref Frames
Format settings, CABAC      : Yes
Format settings, ReFrames   : 8 frames
Codec ID                    : V_MPEG4/ISO/AVC
Duration                    : 1 h 30 min
Bit rate                    : 1 849 kb/s
Width                       : 1 024 pixels
Height                      : 432 pixels
Display aspect ratio        : 2.40:1
Frame rate mode             : Constant
Frame rate                  : 23.976 FPS
Color space                 : YUV
Chroma subsampling          : 4:2:0
Bit depth                   : 8 bits
Scan type                   : Progressive
Bits/(Pixel*Frame)          : 0.174
Stream size                 : 1.17 GiB (74%)
Writing library             : core 67 r1134M b8808bf
Encoding settings           : cabac=1 / ref=8 / deblock=0:0:0 / analyse=0x3:0x113 / me=hex / subme=6 / psy_rd=0.7:0.2 / mixed_ref=1 / me_range=16 / chroma_me=1 / trellis=2 / 8x8dct=1 / cqm=0 / deadzone=21,11 / chroma_qp_offset=-10 / threads=3 / nr=0 / decimate=1 / mbaff=0 / bframes=4 / b_pyramid=1 / b_adapt=2 / b_bias=0 / direct=1 / wpredb=1 / keyint=250 / keyint_min=25 / scenecut=40 / rc=crf / crf=20.8 / qcomp=0.60 / qpmin=10 / qpmax=51 / qpstep=4 / ip_ratio=1.40 / pb_ratio=1.30 / aq=1:0.70 / zones=122283,130392,q=40
Language                    : English
Default                     : Yes
Forced                      : No

Audio #1
ID                          : 2
Format                      : AC-3
Format/Info                 : Audio Coding 3
Codec ID                    : A_AC3
Duration                    : 1 h 30 min
Bit rate mode               : Constant
Bit rate                    : 448 kb/s
Channel(s)                  : 6 channels
Channel positions           : Front: L C R, Side: L R, LFE
Sampling rate               : 48.0 kHz
Frame rate                  : 31.250 FPS (1536 SPF)
Bit depth                   : 16 bits
Compression mode            : Lossy
Stream size                 : 290 MiB (18%)
Title                       : UA-MVO, K1|
Language                    : Ukrainian
Service kind                : Complete Main
Default                     : Yes
Forced                      : Yes

Audio #2
ID                          : 3
Format                      :
Format/Info                 : Advanced Audio Codec
Format profile              : HE- / LC
Format settings             : Explicit
Codec ID                    : A_AAC-2
Duration                    : 1 h 30 min
Bit rate                    : 192 kb/s
Channel(s)                  : 6 channels
Channel positions           : Front: L C R, Side: L R, LFE
Sampling rate               : 48.0 kHz / 24.0 kHz
Frame rate                  : 23.438 FPS (1024 SPF)
Compression mode            : Lossy
Stream size                 : 123 MiB (8%)
Language                    : English
Default                     : No
Forced                      : No

Text #1
ID                          : 4
Format                      : UTF-8
Codec ID                    : S_TEXT/UTF8
Codec ID/Info               : UTF-8 Plain Text
Duration                    : 1 h 28 min
Bit rate                    : 66 b/s
Count of elements           : 1002
Stream size                 : 43.3 KiB (0%)
Title                       : Ukr Sub
Language                    : Ukrainian
Default                     : No
Forced                      : No

Text #2
ID                          : 5
Format                      : UTF-8
Codec ID                    : S_TEXT/UTF8
Codec ID/Info               : UTF-8 Plain Text
Duration                    : 1 h 28 min
Bit rate                    : 44 b/s
Count of elements           : 986
Stream size                 : 28.7 KiB (0%)
Title                       : Eng Sub
Language                    : English
Default                     : No
Forced                      : No





Джерела та подяки: &
українська доріжка - Тирік - зведення, gig_Panas - запис з ТБ; українізовані постери - Тирік (обоє - Гуртом).


ЗАЛИШАЙТЕСЬ ЯКОМОГА ДОВШЕ НА РОЗДАЧІ!

СКАЧАВ САМ - ДАЙ СКАЧАТИ ІНШИМ


 Трекер:    Зареєстрований   

Завантажити / скачати мультфільм українською



відео для новачків



 Зареєстрований:   2018-11-11 09:55
 Розмір:   1.58 GB 
 Оцінка мультфільму:   7.3/10 (Голосів: 4)
   
Інші релізи
bot 
робот


З нами з: 30.09.07
Востаннє: 26.05.05
Повідомлень: 26007

2018-11-11 09:55  
Тему перенесено з Анонси релізів до форуму Мультфільми


staf777

Ваш часовий пояс: GMT + 2 Години

Нова тема   Відповісти