Формула 1. Сезон 2018. Етап 20. Гран-Прі Бразилії. Кваліфікація (10.11.2018) HDTV 1080i

Нові коментарі

Нова тема   Відповісти
Автор Повідомлення
sergiyko.5 
VIP


З нами з: 25.02.16
Востаннє: 15.11.18
Повідомлень: 1883

2018-11-10 20:59  
Формула 1. Сезон 2018. Етап 20. Гран-Прі Бразилії. Кваліфікація (10.11.2018) HDTV 1080i


Формула 1. Сезон 2018. Етап 20. Гран-Прі Бразилії. Кваліфікація (10.11.2018) HDTV 1080i

Жанр: Перегони Формула 1
Країна: Бразилія
Телеканал: Перший автомобільний
Коментатор: Максим Подзігун

Опис:
Кваліфікація двадцятого етапу Гран-Прі Бразилії 2018 року відбулась 10 листопада 2018 року о 19 годині за київським часом.


Тривалість: 01:13:22
Якість: HDTV

Відео:кодек: розмір кадру: 1920 х 1080 бітрейт: 5300 кб/с
Аудіо: мова: українська кодек: 2.0 бітрейт: 128 кб/с
Про файл:
General
Unique ID : 139199672536648917967009844115372859569 (0x68B8E1BAF08E1D9A82B171F2BDC960B1)
Complete name : G:\Torrents2\SPORT\Formula 1\F1.2018.Qualifying\F1.2018.20.Brazil.Qualifying.1080i.HDTV.Ukr.
Format :
Format version : Version 4
File size : 2.79 GiB
Duration : 1 h 13 min
Overall bit rate : 5 441 kb/s
Encoded date : UTC 2018-11-10 18:51:50
Writing application : v28.1.0 ('Morning Child') 64-bit
Writing library : libebml v1.3.6 + v1.4.9

Video
ID : 1
Format : AVC
Format/Info : Advanced Video Codec
Format profile : [email protected]
Format settings : CABAC / 4 Ref Frames
Format settings, CABAC : Yes
Format settings, ReFrames : 4 frames
Codec ID : V_MPEG4/ISO/AVC
Duration : 1 h 13 min
Bit rate : 5 313 kb/s
Width : 1 920 pixels
Height : 1 080 pixels
Display aspect ratio : 16:9
Frame rate mode : Variable
Frame rate : 26.867 FPS
Original frame rate : 25.000 FPS
Standard : Component
Color space : YUV
Chroma subsampling : 4:2:0
Bit depth : 8 bits
Scan type : MBAFF
Scan type, store method : Interleaved fields
Scan order : Top Field First
Bits/(Pixel*Frame) : 0.095
Stream size : 2.72 GiB (98%)
Language : English
Default : Yes
Forced : No
Color range : Limited
Color primaries : BT.709
Transfer characteristics : BT.709
Matrix coefficients : BT.709

Audio
ID : 2
Format : LC
Format/Info : Advanced Audio Codec Low Complexity
Codec ID : A_AAC-2
Duration : 1 h 13 min
Bit rate : 125 kb/s
Channel(s) : 2 channels
Channel layout : L R
Sampling rate : 48.0 kHz
Frame rate : 46.875 FPS (1024 SPF)
Compression mode : Lossy
Stream size : 65.8 MiB (2%)
Title : Максим Подзігун
Language : Ukrainian
Default : Yes
Forced : No
Скріншоти:


Автор запису: sergiyko


 Трекер:    Зареєстрований   

Завантажити / скачати торрент



відео для новачків



 Зареєстрований:   2018-11-10 20:59
 Розмір:   2.79 GB 
 Оцінка:   9.6/10 (Голосів: 21)
   
Did_tyu 
Новенький


З нами з: 16.09.18
Востаннє: 11.11.18
Повідомлень: 1

2018-11-11 09:04  
Дякую!
Але замінить назву на вірну "Кавліфікація" на Кваліфікація. Wink (2)

sergiyko.5 
VIP


З нами з: 25.02.16
Востаннє: 15.11.18
Повідомлень: 1883

2018-11-11 19:21  
Запису гонки від sergiyko сьогодні не буде, нічна зміна.
Umbrella.Corps 
Частий відвідувач


З нами з: 09.04.17
Востаннє: 13.11.18
Повідомлень: 31

2018-11-11 21:01  
sergiyko.5
Я так зрозумів що sergiyko теж чекав на 20.55? Це лажа....

sergiyko.5 
VIP


З нами з: 25.02.16
Востаннє: 15.11.18
Повідомлень: 1883

2018-11-11 22:20  
Ні, я почав запис о 18:50.
SchumacherZV 
Новенький


З нами з: 09.04.17
Востаннє: 12.11.18
Повідомлень: 1

2018-11-12 03:42  
sergiyko.5
Вибачте, запису гонки взагалі не буде, чи ви завантажите його пізніше?
Дякую

sergiyko.5 
VIP


З нами з: 25.02.16
Востаннє: 15.11.18
Повідомлень: 1883

2018-11-12 06:10  
Вранці, думаю, зроблю реліз. Треба тільки вирішити питання провідного інтернету, який зараз не працює.
TanyaSchumi 
Новенький


З нами з: 10.05.18
Востаннє: 14.11.18
Повідомлень: 1

2018-11-12 07:55  
Чекаємо на гонку від вас. Не хочеться качати російський варіант...
rudik73 
Новенький


З нами з: 07.10.18
Востаннє: 14.11.18
Повідомлень: 6

2018-11-12 08:07  
TanyaSchumi написано:
Чекаємо на гонку від вас. Не хочеться качати російський варіант...

а доведеться качати ...
як варіант скай спорт
якщо тільки у автора немає приставки екстрабокс
https://xtratv.com.ua/ru/news

sergiyko.5 
VIP


З нами з: 25.02.16
Востаннє: 15.11.18
Повідомлень: 1883

2018-11-12 08:09  
rudik73
Так Перший Автомобільний є не тільки в пакеті XTRATV, є ще OLL, MEGOGO, Воля.

rudik73 
Новенький


З нами з: 07.10.18
Востаннє: 14.11.18
Повідомлень: 6

2018-11-12 08:18  
sergiyko.5 написано:

rudik73
Так Перший Автомобільний є не тільки в пакеті XTRATV, є ще OLL, MEGOGO, Воля.


якщо вони купують трансляції тоді да
це тільки я щасливчик дивлюся з космосу

Ваш часовий пояс: GMT + 2 Години

Нова тема   Відповісти