Камера 211 / Celda 211 (2009) AVC 2xUkr/Spa

Нові коментарі

Нова тема   Відповісти
Автор Повідомлення
staf777 
Відео Гуртом - підтримка та поширення
Відео Гуртом - підтримка та поширення


З нами з: 16.11.16
Востаннє: 10.12.19
Повідомлень: 3040

2018-11-10 16:53  
Камера 211 / Celda 211 (2009) AVC 2xUkr/Spa

Камера 211 / Celda 211 (2009) AVC 2xUkr/Spa


Жанр: бойовик, драма, триллер
Країна: Іспанія, Франція



Кінокомпанія: Vaca Films, Telecinco Cinema, Morena Films, TVG / Telecinco Cinema
Режисер: Даніель Монзон
Актори: Луїс Тосар, Карлос Бардем, Маноло Соло, Альберто Емманн, Антоніо Ресінес, Марта Етура, Фелікс Куберо та інші

Сюжет:
Для поліцейського, який прийшов на посаду наглядача у в'язницю нове робоче місце виявилося фатальним. Він потрапив у непросту ситуацію, і для того щоб вижити, йому необхідно було прикинутися ув'язненим. Такий поворот подій змусив його ступити на вістря ножа…


Тривалість: 01:47:52
Якість: AVC
Відео:
кодек:
розмір кадру: 1024x552
бітрейт: 2325 кб/с

Аудіо # 1:
мова: українська
переклад: багатоголосий закадровий
кодек: 5.1
бітрейт: 448 кб/с

Аудіо # 2:
мова: українська
переклад: багатоголосий закадровий
кодек: 2.0
бітрейт: 192 кб/с

Аудіо # 3:
мова: іспанська
переклад: оригінал
кодек: 5.1
бітрейт: 448 кб/с
Info
General
Unique ID : 58824363959402073658353437110163097700 (0x2C412910087473A0951A6EA73E5E4864)
Complete name : G:\Celda 211 (2009) AVC [2xUkr][SPA] [Hurtom].
Format :
Format version : Version 4 / Version 2
File size : 2.57 GiB
Duration : 1 h 47 min
Overall bit rate : 3 415 kb/s
Movie name : Celda 211 (2009) AVC [2xUkr][SPA] [Hurtom]
Encoded date : UTC 2018-11-10 14:27:44
Writing application : v24.0.0 ('Beyond The Pale') 64-bit
Writing library : libebml v1.3.6 + v1.4.9
Cover : Yes
Attachments : cover.jpg

Video
ID : 1
Format : AVC
Format/Info : Advanced Video Codec
Format profile : [email protected]
Format settings : CABAC / 3 Ref Frames
Format settings, CABAC : Yes
Format settings, ReFrames : 3 frames
Codec ID : V_MPEG4/ISO/AVC
Duration : 1 h 47 min
Bit rate : 2 325 kb/s
Width : 1 024 pixels
Height : 552 pixels
Display aspect ratio : 1.85:1
Frame rate mode : Constant
Frame rate : 25.000 FPS
Color space : YUV
Chroma subsampling : 4:2:0
Bit depth : 8 bits
Scan type : Progressive
Bits/(Pixel*Frame) : 0.165
Stream size : 1.75 GiB (68%)
Writing library : core 79 r1342kMod e8501ef
Encoding settings : cabac=1 / ref=3 / deblock=1:0:0 / analyse=0x3:0x113 / me=hex / subme=6 / psy=1 / psy_rd=1.0:0.0 / mixed_ref=1 / me_range=16 / chroma_me=1 / trellis=1 / 8x8dct=1 / cqm=0 / deadzone=21,11 / chroma_qp_offset=-2 / threads=3 / nr=0 / decimate=1 / mbaff=0 / constrained_intra=0 / bframes=2 / b_pyramid=0 / b_adapt=1 / b_bias=0 / direct=3 / wpredb=1 / wpredp=2 / keyint=250 / keyint_min=25 / scenecut=40 / rc_lookahead=40 / rc=2pass / mbtree=1 / bitrate=2325 / ratetol=1.0 / qcomp=0.60 / qpmin=10 / qpmax=51 / qpstep=4 / cplxblur=20.0 / qblur=0.5 / ip_ratio=1.40 / aq=1:1.00
Default : Yes
Forced : No

Audio #1
ID : 2
Format : AC-3
Format/Info : Audio Coding 3
Codec ID : A_AC3
Duration : 1 h 47 min
Bit rate mode : Constant
Bit rate : 448 kb/s
Channel(s) : 6 channels
Channel positions : Front: L C R, Side: L R, LFE
Sampling rate : 48.0 kHz
Frame rate : 31.250 FPS (1536 SPF)
Bit depth : 16 bits
Compression mode : Lossy
Stream size : 346 MiB (13%)
Title : [UA-DUB]
Language : Ukrainian
Service kind : Complete Main
Default : Yes
Forced : Yes

Audio #2
ID : 3
Format : AC-3
Format/Info : Audio Coding 3
Codec ID : A_AC3
Duration : 1 h 47 min
Bit rate mode : Constant
Bit rate : 192 kb/s
Channel(s) : 2 channels
Channel positions : Front: L R
Sampling rate : 48.0 kHz
Frame rate : 31.250 FPS (1536 SPF)
Bit depth : 16 bits
Compression mode : Lossy
Stream size : 148 MiB (6%)
Title : [UA-MVO]
Language : Ukrainian
Service kind : Complete Main
Default : No
Forced : No

Audio #3
ID : 4
Format : AC-3
Format/Info : Audio Coding 3
Codec ID : A_AC3
Duration : 1 h 47 min
Bit rate mode : Constant
Bit rate : 448 kb/s
Channel(s) : 6 channels
Channel positions : Front: L C R, Side: L R, LFE
Sampling rate : 48.0 kHz
Frame rate : 31.250 FPS (1536 SPF)
Bit depth : 16 bits
Compression mode : Lossy
Stream size : 346 MiB (13%)
Language : Spanish
Service kind : Complete Main
Default : No
Forced : No





За аудіо # 1 подяка п. antik_2008
За постер подяка: Deluxeman
Запис та синхронізація BILko

Джерело: &
Особиста оцінка: 0 - не дивився
Камера 211 / Celda 211 (2009) AVC 2xUkr/Spa Камера 211 / Celda 211 (2009) AVC 2xUkr/Spa


 Трекер:    Зареєстрований   

Завантажити / скачати фільм українською



відео для новачків



 Зареєстрований:   2018-11-10 16:53
 Розмір:   2.57 GB 
 Оцінка фільму:   8.2/10 (Голосів: 9)
   
Інші релізи
   Камера 211 / Celda 211 (2009) Remux 1080p 2xUkr/Spa | Sub Eng staf777  6 / 0   20.42 GB   2019-12-08 19:04 
   Камера 211 / Celda 211 (2009) 720p 2xUkr/Spa | Sub Eng staf777  5 / 0   6.99 GB   2018-11-11 17:06 
   Камера 211 / Celda 211 (2009) 2xUkr Dark Invader  2 / 0   1.8 GB   2013-06-07 22:43 
   Камера 211 / Celda 211 (2009) Ukr/Spa AngryBirdsUA  3 / 0   2.23 GB   2012-07-07 10:55 
bot 
робот


З нами з: 30.09.07
Востаннє: 26.05.05
Повідомлень: 22605

2018-11-10 16:55  
Тему перенесено з Художні фільми до форуму Фільми


staf777

knibe 
Новенький


З нами з: 18.12.13
Востаннє: 10.12.19
Повідомлень: 22

2018-11-10 20:44  
troubless 
Частий відвідувач


З нами з: 14.06.11
Востаннє: 10.12.19
Повідомлень: 48

2018-11-16 01:02  
В першій доріжці багатоголосе озвучення, не дубляж.
igor911 
Модератор відео


З нами з: 18.01.08
Востаннє: 10.12.19
Повідомлень: 13722

2018-11-16 12:00  
troubless написано:
В першій доріжці багатоголосе озвучення, не дубляж.

виправив

R7DER 
Частий відвідувач


З нами з: 25.05.12
Востаннє: 10.12.19
Повідомлень: 27

2018-11-16 13:06  
Став дивитись іспанське кіно після фільму "Правда в його очах" і "Тіло". Вміють все-таки в Європі знімати, нічим не поступається французському або скандинавському. Конкретно цей фільм теж здивував, драматургія на рівні, акторська гра захоплює, тим більше, що актор, який виконав головну роль притягнув мою увагу ще в третьому сезоні серіалу "Narcos: Картель Калі". Рекомендую до перегляду!!!
Ваш часовий пояс: GMT + 2 Години

Нова тема   Відповісти