Скарб нації / National Treasure (2004) AVC 2xUkr/Eng | Sub Ukr/Eng

Нові коментарі

Нова тема   Відповісти
Автор Повідомлення
staf777 
Попереджень: 1
Попереджень: 1 


З нами з: 16.11.16
Востаннє: 14.11.18
Повідомлень: 1743

2018-11-10 15:15  
Скарб нації / National Treasure (2004) AVC 2xUkr/Eng | Sub Ukr/Eng

Скарб нації / National Treasure (2004) AVC 2xUkr/Eng | Sub Ukr/Eng


Жанр: кримінальний, пригодницький, бойовик
Країна: США



Кінокомпанія: Walt Disney Pictures, Jerry Bruckheimer Films, Junction Entertainment
Режисер: Джон Тартелтауб / Jon Turteltaub
Актори: Ніколас Кейдж / Nicolas Cage, Дайан Крюґер / Diane Kruger, Джастін Барта / Justin Bartha, Шон Бін / Sean Bean, Джон Войт / Jon Voight, Гарві Кейтель / Harvey Keitel, Крістофер Пламмер / Christopher Plummer, Девід Дайан Фішер / David Dayan Fisher та інші

Сюжет:
Сучасні мисливці за скарбами на чолі з Беном Франкліном Ґейтсом дізнаються старовинну легенду про скарб, захований ще батьками-засновниками американської держави Джорджем Вашингтоном, Бенджаміном Франкліном і Томасом Джефферсоном.
Дізнатися таємницю кладу можна за допомогою Декларації Незалежності США, в якій зашифрована розгадка. Але крім розгадування витонченої головоломки, нашим героям належить битися з любителями легкої наживи, спраглим погріти руки на надбанні республіки ...


Тривалість: 02:11:04
Якість: AVC
Відео:
кодек:
розмір кадру: 1024х426
бітрейт: 2582 кб/с

Аудіо # 1:
мова: українська
переклад: двоголосий закадровий
кодек: 2.0
бітрейт: 192 кб/с

Аудіо # 2:
мова: українська
переклад: багатоголосий закадровий
кодек: 2.0
бітрейт: 192 кб/с

Аудіо # 3:
мова: англійська
переклад: оригінал
кодек: 5.1
бітрейт: 384 кб/с

Субтитри:
мова: українська
тип: програмні (м'які)
формат: *.srt

Субтитри:
мова: англійська
тип: програмні (м'які)
формат: *.srt
Info
General
Unique ID : 172360427611348099467486720477963561494 (0x81AB692F3240B4A12C2D09DEF1392A16)
Complete name : G:\ National Treasure (2004) AVC [2xUA][ENG][Hurtom].
Format :
Format version : Version 4 / Version 2
File size : 3.06 GiB
Duration : 2 h 11 min
Overall bit rate : 3 346 kb/s
Movie name : National Treasure (2004) AVC [2xUA][ENG][Hurtom]
Encoded date : UTC 2018-11-10 12:50:43
Writing application : v24.0.0 ('Beyond The Pale') 64-bit
Writing library : libebml v1.3.6 + v1.4.9
Cover : Yes
Attachments : cover.jpg

Video
ID : 1
Format : AVC
Format/Info : Advanced Video Codec
Format profile : [email protected]
Format settings : CABAC / 9 Ref Frames
Format settings, CABAC : Yes
Format settings, ReFrames : 9 frames
Codec ID : V_MPEG4/ISO/AVC
Duration : 2 h 11 min
Bit rate : 2 582 kb/s
Width : 1 024 pixels
Height : 426 pixels
Display aspect ratio : 2.40:1
Frame rate mode : Constant
Frame rate : 23.976 (24000/1001) FPS
Color space : YUV
Chroma subsampling : 4:2:0
Bit depth : 8 bits
Scan type : Progressive
Bits/(Pixel*Frame) : 0.247
Stream size : 2.36 GiB (77%)
Title : Rip by 0ptimus
Writing library : core 133 r2334 a3ac64b
Encoding settings : cabac=1 / ref=9 / deblock=1:-3:-3 / analyse=0x3:0x113 / me=umh / subme=11 / psy=1 / psy_rd=1.00:0.20 / mixed_ref=1 / me_range=48 / chroma_me=1 / trellis=2 / 8x8dct=1 / cqm=0 / deadzone=21,11 / fast_pskip=0 / chroma_qp_offset=-3 / threads=4 / lookahead_threads=1 / sliced_threads=0 / nr=0 / decimate=0 / interlaced=0 / bluray_compat=0 / constrained_intra=0 / bframes=11 / b_pyramid=2 / b_adapt=2 / b_bias=0 / direct=3 / weightb=1 / open_gop=0 / weightp=2 / keyint=240 / keyint_min=23 / scenecut=40 / intra_refresh=0 / rc_lookahead=40 / rc=2pass / mbtree=0 / bitrate=2582 / ratetol=1.0 / qcomp=0.60 / qpmin=0 / qpmax=69 / qpstep=4 / cplxblur=20.0 / qblur=0.5 / vbv_maxrate=50000 / vbv_bufsize=50000 / nal_hrd=none / ip_ratio=1.40 / pb_ratio=1.30 / aq=1:1.00
Language : English
Default : Yes
Forced : Yes

Audio #1
ID : 2
Format : AC-3
Format/Info : Audio Coding 3
Codec ID : A_AC3
Duration : 2 h 11 min
Bit rate mode : Constant
Bit rate : 192 kb/s
Channel(s) : 2 channels
Channel positions : Front: L R
Sampling rate : 48.0 kHz
Frame rate : 31.250 FPS (1536 SPF)
Bit depth : 16 bits
Compression mode : Lossy
Stream size : 180 MiB (6%)
Title : [UA-DVO-1+1]
Language : Ukrainian
Service kind : Complete Main
Default : Yes
Forced : Yes

Audio #2
ID : 3
Format : AC-3
Format/Info : Audio Coding 3
Codec ID : A_AC3
Duration : 2 h 11 min
Bit rate mode : Constant
Bit rate : 192 kb/s
Channel(s) : 2 channels
Channel positions : Front: L R
Sampling rate : 48.0 kHz
Frame rate : 31.250 FPS (1536 SPF)
Bit depth : 16 bits
Compression mode : Lossy
Stream size : 180 MiB (6%)
Title : [UA-MVO-H]
Language : Ukrainian
Service kind : Complete Main
Default : No
Forced : No

Audio #3
ID : 4
Format : AC-3
Format/Info : Audio Coding 3
Codec ID : A_AC3
Duration : 2 h 11 min
Bit rate mode : Constant
Bit rate : 384 kb/s
Channel(s) : 6 channels
Channel positions : Front: L C R, Side: L R, LFE
Sampling rate : 48.0 kHz
Frame rate : 31.250 FPS (1536 SPF)
Bit depth : 16 bits
Compression mode : Lossy
Stream size : 360 MiB (11%)
Title : 5.1 @ 384 kbps
Language : English
Service kind : Complete Main
Default : No
Forced : No

Text #1
ID : 5
Format : UTF-8
Codec ID : S_TEXT/UTF8
Codec ID/Info : UTF-8 Plain Text
Duration : 2 h 0 min
Bit rate : 89 b/s
Count of elements : 1431
Stream size : 78.8 KiB (0%)
Language : Ukrainian
Default : No
Forced : No

Text #2
ID : 6
Format : UTF-8
Codec ID : S_TEXT/UTF8
Codec ID/Info : UTF-8 Plain Text
Duration : 2 h 0 min
Bit rate : 58 b/s
Count of elements : 1533
Stream size : 51.4 KiB (0%)
Language : English
Default : No
Forced : No

Menu
00:00:00.000 : en:The Legend of the Treasure
00:06:36.229 : en:The Charlotte
00:22:20.339 : en:Meeting with Dr. Chase
00:28:52.063 : en:Making a Plan
00:31:18.126 : en:The Setup
00:35:47.311 : en:The Gala
00:45:55.794 : en:Getting Found Out
00:54:28.139 : en:We Need Those Letters
01:01:07.872 : en:Examining the Document
01:07:02.852 : en:Philadelphia
01:16:54.192 : en:The Ocular Device
01:24:06.041 : en:Ian Has the Map
01:28:21.254 : en:The Uss Intrepid
01:34:20.404 : en:Making a Deal with Ian
01:38:31.572 : en:Beneath Parkington Lane
01:49:42.158 : en:Ian Leaves Them Behind
01:53:25.965 : en:Could It Really Be That Simple?
01:57:22.035 : en:Somebody Has to Go to Prison
02:01:42.795 : en:End Credits




[/spoiler]
taraskill1 - зведення. OlegCena, SalCom - запис.
Джерело: &
Особиста оцінка: 8 - мені сподобалося
Скарб нації / National Treasure (2004) AVC 2xUkr/Eng | Sub Ukr/Eng Скарб нації / National Treasure (2004) AVC 2xUkr/Eng | Sub Ukr/Eng


Срібний реліз (на рейтинг впливає 50% завантаженого)
 Трекер:    Зареєстрований   

Завантажити / скачати фільм українською



відео для новачків



 Зареєстрований:   2018-11-10 17:49
 Розмір:   3.06 GB 
 Оцінка фільму:   9/10 (Голосів: 4)
   
Інші релізи
bot 
робот


З нами з: 30.09.07
Востаннє: 26.05.05
Повідомлень: 20136

2018-11-10 17:48  
Тему перенесено з Анонси релізів до форуму Фільми


staf777

Ваш часовий пояс: GMT + 2 Години

Нова тема   Відповісти