Скарб нації / National Treasure (2004) 1080p 2xUkr/Eng | Sub Ukr/Eng

Нові коментарі

Нова тема   Відповісти
Автор Повідомлення
staf777 
Відео Гуртом - підтримка та поширення
Відео Гуртом - підтримка та поширення


З нами з: 16.11.16
Востаннє: 22.04.19
Повідомлень: 2283

2018-11-10 16:11  
Скарб нації / National Treasure (2004) 1080p 2xUkr/Eng | Sub Ukr/Eng

Скарб нації / National Treasure (2004) 1080p 2xUkr/Eng | Sub Ukr/Eng


Жанр: кримінальний, пригодницький, бойовик
Країна: США



Кінокомпанія: Walt Disney Pictures, Jerry Bruckheimer Films, Junction Entertainment
Режисер: Джон Тартелтауб / Jon Turteltaub
Актори: Ніколас Кейдж / Nicolas Cage, Дайан Крюґер / Diane Kruger, Джастін Барта / Justin Bartha, Шон Бін / Sean Bean, Джон Войт / Jon Voight, Гарві Кейтель / Harvey Keitel, Крістофер Пламмер / Christopher Plummer, Девід Дайан Фішер / David Dayan Fisher та інші

Сюжет:
Сучасні мисливці за скарбами на чолі з Беном Франкліном Ґейтсом дізнаються старовинну легенду про скарб, захований ще батьками-засновниками американської держави Джорджем Вашингтоном, Бенджаміном Франкліном і Томасом Джефферсоном.
Дізнатися таємницю кладу можна за допомогою Декларації Незалежності США, в якій зашифрована розгадка. Але крім розгадування витонченої головоломки, нашим героям належить битися з любителями легкої наживи, спраглим погріти руки на надбанні республіки ...


Тривалість: 02:11:04
Якість: 1080p
Відео:
кодек:
розмір кадру: 1920x798
бітрейт: 12.8 Мб/с

Аудіо # 1:
мова: українська
переклад: двоголосий закадровий
кодек: 2.0
бітрейт: 192 кб/с

Аудіо # 2:
мова: українська
переклад: багатоголосий закадровий
кодек: 2.0
бітрейт: 192 кб/с

Аудіо # 3:
мова: англійська
переклад: оригінал
кодек: 5.1
бітрейт: 1510 кб/с

Субтитри:
мова: українська
тип: програмні (м'які)
формат: *.srt

Субтитри:
мова: англійська
тип: програмні (м'які)
формат: *.srt
Info
General
Unique ID : 66492378641742422533147463768338257655 (0x3205F760170859F3A9951438A5FED6F7)
Complete name : G:\Бойовик\National Treasure (2004) (1080p) 2xUkr.Eng Sub-Ukr.Eng [Hurtom].
Format :
Format version : Version 4 / Version 2
File size : 13.4 GiB
Duration : 2 h 11 min
Overall bit rate : 14.7 Mb/s
Movie name : National Treasure (2004) (1080p) 2xUkr.Eng Sub-Ukr.Eng [Hurtom]
Encoded date : UTC 2018-11-10 11:34:12
Writing application : v24.0.0 ('Beyond The Pale') 64-bit
Writing library : libebml v1.3.6 + v1.4.9
Cover : Yes
Attachments : cover.jpg

Video
ID : 1
Format : AVC
Format/Info : Advanced Video Codec
Format profile : [email protected]
Format settings : CABAC / 4 Ref Frames
Format settings, CABAC : Yes
Format settings, ReFrames : 4 frames
Codec ID : V_MPEG4/ISO/AVC
Duration : 2 h 11 min
Bit rate : 12.8 Mb/s
Width : 1 920 pixels
Height : 798 pixels
Display aspect ratio : 2.40:1
Frame rate mode : Constant
Frame rate : 23.976 FPS
Color space : YUV
Chroma subsampling : 4:2:0
Bit depth : 8 bits
Scan type : Progressive
Bits/(Pixel*Frame) : 0.348
Stream size : 11.7 GiB (87%)
Writing library : core 59 r851M e11ef38
Encoding settings : cabac=1 / ref=4 / deblock=1:-1:-1 / analyse=0x3:0x113 / me=umh / subme=7 / me-prepass=0 / brdo=1 / mixed_ref=1 / me_range=16 / chroma_me=1 / trellis=1 / 8x8dct=1 / cqm=0 / deadzone=21,11 / chroma_qp_offset=0 / threads=6 / nr=0 / decimate=0 / mbaff=0 / fgo=10 / bframes=8 / b_pyramid=1 / b_adapt=1 / b_bias=0 / direct=1 / wpredb=1 / bime=1 / keyint=250 / keyint_min=25 / scenecut=40(pre) / rc=2pass / bitrate=12771 / ratetol=2.0 / rceq='blurCplx^(1-qComp)' / qcomp=1.00 / qpmin=10 / qpmax=51 / qpstep=4 / cplxblur=20.0 / qblur=0.5 / vbv_maxrate=38000 / vbv_bufsize=30000 / ip_ratio=1.40 / pb_ratio=1.15 / aq=2:1.00
Language : English
Default : Yes
Forced : No

Audio #1
ID : 2
Format : AC-3
Format/Info : Audio Coding 3
Codec ID : A_AC3
Duration : 2 h 11 min
Bit rate mode : Constant
Bit rate : 192 kb/s
Channel(s) : 2 channels
Channel positions : Front: L R
Sampling rate : 48.0 kHz
Frame rate : 31.250 FPS (1536 SPF)
Bit depth : 16 bits
Compression mode : Lossy
Stream size : 180 MiB (1%)
Title : [UA-DVO-1+1]
Language : Ukrainian
Service kind : Complete Main
Default : Yes
Forced : Yes

Audio #2
ID : 3
Format : AC-3
Format/Info : Audio Coding 3
Codec ID : A_AC3
Duration : 2 h 11 min
Bit rate mode : Constant
Bit rate : 192 kb/s
Channel(s) : 2 channels
Channel positions : Front: L R
Sampling rate : 48.0 kHz
Frame rate : 31.250 FPS (1536 SPF)
Bit depth : 16 bits
Compression mode : Lossy
Stream size : 180 MiB (1%)
Title : [UA-MVO-H]
Language : Ukrainian
Service kind : Complete Main
Default : No
Forced : No

Audio #3
ID : 4
Format :
Format/Info : Digital Theater Systems
Codec ID : A_DTS
Duration : 2 h 11 min
Bit rate mode : Constant
Bit rate : 1 510 kb/s
Channel(s) : 6 channels
Channel positions : Front: L C R, Side: L R, LFE
Sampling rate : 48.0 kHz
Frame rate : 93.750 FPS (512 SPF)
Bit depth : 24 bits
Compression mode : Lossy
Stream size : 1.38 GiB (10%)
Language : English
Default : No
Forced : No

Text #1
ID : 5
Format : UTF-8
Codec ID : S_TEXT/UTF8
Codec ID/Info : UTF-8 Plain Text
Duration : 2 h 0 min
Bit rate : 89 b/s
Count of elements : 1431
Stream size : 78.8 KiB (0%)
Language : Ukrainian
Default : No
Forced : No

Text #2
ID : 6
Format : UTF-8
Codec ID : S_TEXT/UTF8
Codec ID/Info : UTF-8 Plain Text
Duration : 2 h 0 min
Bit rate : 58 b/s
Count of elements : 1533
Stream size : 51.4 KiB (0%)
Language : English
Default : No
Forced : No






taraskill1 - зведення. OlegCena, SalCom - запис.
Джерело: &
Особиста оцінка: 8 - мені сподобалося
Скарб нації / National Treasure (2004) 1080p 2xUkr/Eng | Sub Ukr/Eng Скарб нації / National Treasure (2004) 1080p 2xUkr/Eng | Sub Ukr/Eng


Срібний реліз (на рейтинг впливає 50% завантаженого)
 Трекер:    Зареєстрований   

Завантажити / скачати фільм українською



відео для новачків



 Зареєстрований:   2018-11-10 16:11
 Розмір:   13.43 GB 
 Оцінка фільму:   8.5/10 (Голосів: 11)
   
Інші релізи
toloka_alex_2013 
Новенький


З нами з: 06.12.13
Востаннє: 22.04.19
Повідомлень: 3

2018-11-11 22:19  
Звук обганяє відео.
staf777 
Відео Гуртом - підтримка та поширення
Відео Гуртом - підтримка та поширення


З нами з: 16.11.16
Востаннє: 22.04.19
Повідомлень: 2283

2018-11-19 18:47  
toloka_alex_2013 написано:
Звук обганяє відео.

Все там гаразд ...

tuheru 
Новенький


З нами з: 03.10.17
Востаннє: 16.04.19
Повідомлень: 4

2019-02-27 12:02  
staf777
розсинхрон з 27-ої хвилини на обох доріжках

Ваш часовий пояс: GMT + 2 Години

Нова тема   Відповісти