Мамця (Сезон 3) / Mom (Season 3) (2015-2016) 1080p Ukr/Eng | Sub Eng

Нові коментарі

Нова тема   Відповісти
Автор Повідомлення
Anonymous 







2018-11-10 10:51  
Мамця (Сезон 3) / Mom (Season 3) (2015-2016) 1080p Ukr/Eng | Sub Eng

Мамця (Сезон 3) / Mom (Season 3) (2015-2016) 1080p Ukr/Eng | Sub Eng


Жанр: комедія, драма, романтичний
Країна: США



Кінокомпанія: Chuck Lorre Productions, Warner Bros. Television
Режисер: Джемма Бейкер (Gemma Baker), Едді Ґородецький (Eddie Gorodetsky), Чак Лоррі (Chuck Lorre)
Актори: Анна Фаріс (Anna Faris), Еллісон Дженні (Allison Janney), Джеймі Преслі (Jaime Pressly), Саді Кальвано (Sadie Calvano), Мімі Кенеді (Mimi Kennedy) та інші

Сюжет:
Крісті - мати-одиначка, яка виховує двох дітей і намагається побороти алкогольну залежність. Щоб прогодувати свою сім'ю, вона влаштувалася офіціанткою в місцевий ресторан, де у неї зав'язалися стосунки з начальником Габріелем. Постійний тиск на неї чинить власна мати, яка також є колишньою алкоголічкою. Крісті постійно стикається з проблемами в житті: старша дочка почала жити дорослим життям, колишній чоловік постійно намагається підставити її, новий коханець виявився одруженим. Крісті намагається у всьому поганому знайти щось хороше, що допомагає їй стати сильною людиною, яка готова пройти будь-які випробування, що виникають на її шляху.


Тривалість: 1 серія: ~20 хв. (цілком серій: 22)
Перелік серій
01) Terrorists and Gingerbread
02) Thigh Gap and a Rack of Lamb
03) Mozzarella Sticks and a Gay Piano Bar
04) Sawdust and Brisket
05) A Pirate, Three Frogs and a Prince
06) Horny-Goggles and a Catered Intervention
07) Kreplach and a Tiny Tush
08) Snickerdoodle and a Nip Slip
09) My Little Pony and a Demerol Drip
10) Quaaludes and Crackerjack
11) Cinderella and a Drunk MacGyver
12) Diabetic Lesbians and a Blushing Bride
13) Sticky Hands and a Walk on the Wild Side
14) Death, Death, Death and a Bucket of Chicken
15) Nazi Zombies and a Two-Hundred-Pound Baby
16) Cornflakes and the Hair of Three Men
17) Caperberries and a Glass Eye
18) Beast Mode and Old People Kissing
19) A Catheter and a Dipsy-Doodle
20) Pure Evil and a Free Piece of Cheesecake
21) Mahjong Sally and the Ecstasy
22) Atticus Finch and the Downtrodden
Якість: [Amazon]
Відео:
кодек:
розмір кадру: 1920 х 1080
бітрейт: ~10 мб/с

Аудіо # 1:
мова: українська
переклад: багатоголосий закадровий | Paramount Comedy
кодек: 2.0
бітрейт: 192 кб/с

Аудіо # 2:
мова: англійська
переклад: оригінал
кодек: 5.1
бітрейт: 640 кб/с

Субтитри:
мова: англійська
тип: програмні (м'які)
формат: *.srt
Info
General
Unique ID : 233164135671566507477559380732300429608 (0xAF69C772185BA26C7BF7A8F48D2B0928)
Complete name : E:\Support\Mom (Season 3) [, 1080p, Ukr, Eng]\Mom. s03e01. Terrorists and Gingerbread.
Format :
Format version : Version 4
File size : 1.32 GiB
Duration : 19 min 46 s
Overall bit rate mode : Variable
Overall bit rate : 9 545 kb/s
Encoded date : UTC 2018-11-09 20:38:38
Writing application : v28.2.0 ('The Awakening') 64-bit
Writing library : libebml v1.3.6 + v1.4.9

Video
ID : 1
Format : AVC
Format/Info : Advanced Video Codec
Format profile : [email protected]
Format settings : CABAC / 4 Ref Frames
Format settings, CABAC : Yes
Format settings, ReFrames : 4 frames
Codec ID : V_MPEG4/ISO/AVC
Duration : 19 min 46 s
Bit rate mode : Variable
Bit rate : 8 713 kb/s
Maximum bit rate : 15.0 Mb/s
Width : 1 920 pixels
Height : 1 080 pixels
Display aspect ratio : 16:9
Frame rate mode : Constant
Frame rate : 25.000 FPS
Original frame rate : 23.976 (24000/1001) FPS
Color space : YUV
Chroma subsampling : 4:2:0
Bit depth : 8 bits
Scan type : Progressive
Bits/(Pixel*Frame) : 0.168
Stream size : 1.20 GiB (91%)
Language : English
Default : Yes
Forced : No
Color range : Limited
Color primaries : BT.709
Transfer characteristics : BT.709
Matrix coefficients : BT.709

Audio #1
ID : 2
Format : AC-3
Format/Info : Audio Coding 3
Commercial name : Dolby Digital
Codec ID : A_AC3
Duration : 19 min 46 s
Bit rate mode : Constant
Bit rate : 192 kb/s
Channel(s) : 2 channels
Channel layout : L R
Sampling rate : 48.0 kHz
Frame rate : 31.250 FPS (1536 SPF)
Bit depth : 16 bits
Compression mode : Lossy
Delay relative to video : -200 ms
Stream size : 27.1 MiB (2%)
Title : Paramount Comedy
Language : Ukrainian
Service kind : Complete Main
Default : Yes
Forced : No

Audio #2
ID : 3
Format : AC-3
Format/Info : Audio Coding 3
Commercial name : Dolby Digital
Codec ID : A_AC3
Duration : 19 min 46 s
Bit rate mode : Constant
Bit rate : 640 kb/s
Channel(s) : 6 channels
Channel layout : L R C LFE Ls Rs
Sampling rate : 48.0 kHz
Frame rate : 31.250 FPS (1536 SPF)
Bit depth : 16 bits
Compression mode : Lossy
Stream size : 90.5 MiB (7%)
Language : English
Service kind : Complete Main
Default : No
Forced : No

Text
ID : 4
Format : UTF-8
Codec ID : S_TEXT/UTF8
Codec ID/Info : UTF-8 Plain Text
Duration : 19 min 11 s
Bit rate : 77 b/s
Count of elements : 427
Stream size : 11.0 KiB (0%)
Language : English
Default : No
Forced : No
Скріншоти

Українську доріжку взято з релізу https://toloka.to/t93996

Джерело: &
Особиста оцінка: 0 - не дивився





Срібний реліз (на рейтинг впливає 50% завантаженого)
 Трекер:    Зареєстрований   

Завантажити / скачати серіал українською



відео для новачків



 Зареєстрований:   2018-11-10 10:51
 Розмір:   32.11 GB 
 Оцінка серіалу:   9.5/10 (Голосів: 11)
   
0mage0 
VIP


З нами з: 06.10.15
Востаннє: 26.11.20
Повідомлень: 709

2018-12-17 07:40  
Гарний сезон вийшов, на рівні перших двох Happy Чекаємо на четвертий сезон Happy
d1monster 
Свій


З нами з: 05.12.09
Востаннє: 26.11.20
Повідомлень: 98

2018-12-22 21:17  
0mage0 написано:
Чекаємо на четвертий сезон

І п'ятий Wink (1)

Ваш часовий пояс: GMT + 2 Години

Нова тема   Відповісти