Більше ніж секс / No Strings Attached (2011) AVC 2xUkr/Eng | Sub Ukr/Eng

Нові коментарі

Нова тема   Відповісти
Автор Повідомлення
staf777 
Відео Гуртом - підтримка та поширення
Відео Гуртом - підтримка та поширення


З нами з: 16.11.16
Востаннє: 05.08.20
Повідомлень: 3928

2018-11-09 20:37  
Більше ніж секс / No Strings Attached (2011) AVC 2xUkr/Eng | Sub Ukr/Eng

Більше ніж секс / No Strings Attached (2011) AVC 2xUkr/Eng | Sub Ukr/Eng


Жанр: комедія, мелодрама
Країна: США



Кінокомпанія: Paramount Pictures, Cold Spring Pictures
Режисер: Айвен Рейтмен
Актори: Наталі Портман, Ештон Катчер, Кері Елвіс, Лейк Белл, Кевін Кляйн, Олівія Тірлбі, Грета Гервіг, Талія Балсам

Сюжет:
Вільні стосунки дозволяють зустрічатися з ким завгодно і не мати жодних зобов’язань. Взаємини такого формату хотіли б мати всі головні герої цієї стрічки. Але ще нікому не вдавалось приборкати сильні почуття, тому раптова любов змінила долю двох молодих людей, які дуже старалися, проте усвідомили, що не проживуть одне без одного ані хвилини.


Тривалість: 01:47:58
Якість: AVC
Відео:
кодек:
розмір кадру: 1024x428
бітрейт: 1544 кб/с

Аудіо # 1:
мова: українська
переклад: професійний дубльований | студія LeDoyen
кодек: 5.1
бітрейт: 448 кб/с
Інформація про дубляж

Режисер дубляжу: Ольга Чернілевська
Перекладач : Сергій Ковальчук
Звукорежисери: Михайло Угрин, Олег Кульчицький
Асистент режисера дубляжу: Ольга Боєва
Зміксовано на студії: LeDoyen
Ролі дублювали: Захар Клименко, Юлія Перенчук, Христина Конечна, Валерій Легін, Сергій Солопай, Катерина Коновалова, Марина Локтіонова та інші.
Аудіо # 2:
мова: українська
переклад: багатоголосий закадровий
кодек: 2.0
бітрейт: 192 кб/с
Інформація про озвучення
Ролі озвучили: Анатолій Пашнін, Юрій Сосков, Катерина Буцька, Юлія Перенчук
Аудіо # 3:
мова: англійська
переклад: оригінал
кодек: 5.1
бітрейт: 448 кб/с

Субтитри:
мова: українська
тип: програмні (м'які)
формат: *.srt

Субтитри:
мова: англійська
тип: програмні (м'які)
формат: *.srt
Info
General
Unique ID : 175769807529841186959573164314586979840 (0x843C0897A7FDCF2BD99F5F9729BF1E00)
Complete name : S:\No Strings Attached (2011) AVC [2xUKR][ENG] [Hurtom].
Format :
Format version : Version 4 / Version 2
File size : 1.99 GiB
Duration : 1 h 47 min
Overall bit rate : 2 635 kb/s
Movie name : No Strings Attached (2011) AVC [2xUKR][ENG] [Hurtom]
Encoded date : UTC 2018-11-10 13:31:29
Writing application : v24.0.0 ('Beyond The Pale') 64-bit
Writing library : libebml v1.3.6 + v1.4.9
Cover : Yes
Attachments : cover.jpg

Video
ID : 1
Format : AVC
Format/Info : Advanced Video Codec
Format profile : [email protected]
Format settings : CABAC / 10 Ref Frames
Format settings, CABAC : Yes
Format settings, ReFrames : 10 frames
Codec ID : V_MPEG4/ISO/AVC
Duration : 1 h 47 min
Bit rate : 1 544 kb/s
Width : 1 024 pixels
Height : 428 pixels
Display aspect ratio : 2.40:1
Frame rate mode : Constant
Frame rate : 23.976 (24000/1001) FPS
Color space : YUV
Chroma subsampling : 4:2:0
Bit depth : 8 bits
Scan type : Progressive
Bits/(Pixel*Frame) : 0.147
Stream size : 1.16 GiB (59%)
Title : by Vaippp
Writing library : core 114 r1924 08d04a4
Encoding settings : cabac=1 / ref=10 / deblock=1:-2:-1 / analyse=0x3:0x133 / me=umh / subme=9 / psy=1 / psy_rd=0.95:0.08 / mixed_ref=1 / me_range=32 / chroma_me=1 / trellis=2 / 8x8dct=1 / cqm=0 / deadzone=21,11 / fast_pskip=0 / chroma_qp_offset=-3 / threads=12 / sliced_threads=0 / nr=0 / decimate=1 / interlaced=0 / constrained_intra=0 / bframes=9 / b_pyramid=2 / b_adapt=2 / b_bias=0 / direct=3 / weightb=1 / open_gop=0 / weightp=2 / keyint=250 / keyint_min=23 / scenecut=40 / intra_refresh=0 / rc_lookahead=40 / rc=2pass / mbtree=0 / bitrate=1544 / ratetol=1.0 / qcomp=0.70 / qpmin=0 / qpmax=69 / qpstep=4 / cplxblur=20.0 / qblur=0.5 / vbv_maxrate=50000 / vbv_bufsize=62500 / nal_hrd=none / ip_ratio=1.40 / pb_ratio=1.30 / aq=1:0.90 / zones=148762,155323,q=35
Language : English
Default : Yes
Forced : No

Audio #1
ID : 2
Format : AC-3
Format/Info : Audio Coding 3
Codec ID : A_AC3
Duration : 1 h 47 min
Bit rate mode : Constant
Bit rate : 448 kb/s
Channel(s) : 6 channels
Channel positions : Front: L C R, Side: L R, LFE
Sampling rate : 48.0 kHz
Frame rate : 31.250 FPS (1536 SPF)
Bit depth : 16 bits
Compression mode : Lossy
Stream size : 346 MiB (17%)
Language : Ukrainian
Service kind : Complete Main
Default : Yes
Forced : Yes

Audio #2
ID : 3
Format : AC-3
Format/Info : Audio Coding 3
Codec ID : A_AC3
Duration : 1 h 47 min
Bit rate mode : Constant
Bit rate : 192 kb/s
Channel(s) : 2 channels
Channel positions : Front: L R
Sampling rate : 48.0 kHz
Frame rate : 31.250 FPS (1536 SPF)
Bit depth : 16 bits
Compression mode : Lossy
Stream size : 148 MiB (7%)
Title : MVO (K1)
Language : Ukrainian
Service kind : Complete Main
Default : No
Forced : No

Audio #3
ID : 4
Format : AC-3
Format/Info : Audio Coding 3
Codec ID : A_AC3
Duration : 1 h 47 min
Bit rate mode : Constant
Bit rate : 448 kb/s
Channel(s) : 6 channels
Channel positions : Front: L C R, Side: L R, LFE
Sampling rate : 48.0 kHz
Frame rate : 31.250 FPS (1536 SPF)
Bit depth : 16 bits
Compression mode : Lossy
Stream size : 346 MiB (17%)
Language : English
Service kind : Complete Main
Default : No
Forced : No

Text #1
ID : 5
Format : UTF-8
Codec ID : S_TEXT/UTF8
Codec ID/Info : UTF-8 Plain Text
Duration : 1 h 41 min
Bit rate : 92 b/s
Count of elements : 1489
Stream size : 68.7 KiB (0%)
Language : Ukrainian
Default : No
Forced : No

Text #2
ID : 6
Format : UTF-8
Codec ID : S_TEXT/UTF8
Codec ID/Info : UTF-8 Plain Text
Duration : 1 h 41 min
Bit rate : 66 b/s
Count of elements : 1493
Stream size : 49.2 KiB (0%)
Language : English
Default : No
Forced : No






Джерело: &
Запис з К1 та зведення - 4erkov.
Особиста оцінка: 8 - мені сподобалося
Більше ніж секс / No Strings Attached (2011) AVC 2xUkr/Eng | Sub Ukr/Eng Більше ніж секс / No Strings Attached (2011) AVC 2xUkr/Eng | Sub Ukr/Eng


 Трекер:    Зареєстрований   

Завантажити / скачати фільм українською



відео для новачків



 Зареєстрований:   2018-11-10 16:52
 Розмір:   1.99 GB 
 Оцінка фільму:   7.8/10 (Голосів: 21)
   
bot 
робот


З нами з: 30.09.07
Востаннє: 26.05.05
Повідомлень: 25168

2018-11-10 16:52  
Тему перенесено з Анонси релізів до форуму Фільми


staf777

don pedro 
Попереджень: 1
Попереджень: 1 


З нами з: 29.06.11
Востаннє: 06.08.20
Повідомлень: 17375

2020-06-05 22:09  
Гарний фільм з хорошим гумором, події у якому розвиваються неспішно і послідовно. Але, попереджаю, сексу таки багатенько, і про нього говорять відверто. Тож, якщо таке вас відштовхує, не дивіться.
Ваш часовий пояс: GMT + 2 Години

Нова тема   Відповісти