Шалені / The Crazies (2010) 720p 2xUkr/Eng | Sub Eng

Нові коментарі

Нова тема   Відповісти
Автор Повідомлення
staf777 
Відео Гуртом - підтримка та поширення
Відео Гуртом - підтримка та поширення


З нами з: 16.11.16
Востаннє: 20.09.20
Повідомлень: 4023

2018-11-09 15:42  
Шалені / The Crazies (2010) 720p 2xUkr/Eng | Sub Eng

Шалені / The Crazies (2010) 720p 2xUkr/Eng | Sub Eng


Жанр: жахи, містика, трилер
Країна: США, ОАЕ



Кінокомпанія: Overture Films, Participant Media, Imagenation Abu Dhabi FZ
Режисер: Брек Ейснер
Актори: Тімоті Оліфант, Рада Мітчел, Джо Андерсон, Даніель Панабейкер, Крісті Лінн Сміт, Ліза К. Віатт, Бретт Рікабі, Престон Бейлі, Джон Ейлворд, Джастін Велборн, Ларрі Седар

Сюжет:
На околицях невеликого містечка падає літак, на борту якого знаходиться прототип біологічної зброї, призначення якої створювати хаос у ворога. Прототип потрапляє у водну систему міста, і хаос починається...


Тривалість: 01:40:45
Якість: 720p
Відео:
кодек:
розмір кадру: 1280x534
бітрейт: 4676 кб/с

Аудіо # 1:
мова: українська
переклад: багатоголосий закадровий
кодек: 2.0
бітрейт: 192 кб/с

Аудіо # 2:
мова: українська
переклад: багатоголосий закадровий
кодек: 2.0
бітрейт: 192 кб/с

Аудіо # 3:
мова: англійська
переклад: оригінал
кодек: 5.1
бітрейт: 1509 кб/с

Аудіо # 4:
мова: англійська
переклад: коментарі
кодек: 2.0
бітрейт: 192 кб/с

Субтитри:
мова: англійська
тип: програмні (м'які)
формат: *.srt
MI
General
Unique ID : 273660891614002544575988898513111242689 (0xCDE12BAAEA5656D4CAD17807D08457C1)
Complete name : G:\Жахи\The Crazies (2010) 720p [2xUKR][ENG] [Hurtom].
Format :
Format version : Version 4 / Version 2
File size : 4.76 GiB
Duration : 1 h 40 min
Overall bit rate mode : Variable
Overall bit rate : 6 763 kb/s
Movie name : The Crazies (2010) 720p [2xUKR][ENG] [Hurtom]
Encoded date : UTC 2018-11-09 18:11:05
Writing application : v24.0.0 ('Beyond The Pale') 64-bit
Writing library : libebml v1.3.6 + v1.4.9
Cover : Yes
Attachments : cover.jpg

Video
ID : 1
Format : AVC
Format/Info : Advanced Video Codec
Format profile : [email protected]
Format settings : CABAC / 10 Ref Frames
Format settings, CABAC : Yes
Format settings, ReFrames : 10 frames
Codec ID : V_MPEG4/ISO/AVC
Duration : 1 h 40 min
Bit rate mode : Variable
Bit rate : 4 674 kb/s
Maximum bit rate : 40.0 Mb/s
Width : 1 280 pixels
Height : 534 pixels
Display aspect ratio : 2.40:1
Frame rate mode : Constant
Frame rate : 23.976 (24000/1001) FPS
Color space : YUV
Chroma subsampling : 4:2:0
Bit depth : 8 bits
Scan type : Progressive
Bits/(Pixel*Frame) : 0.285
Stream size : 3.29 GiB (69%)
Title : Release for HDCLUB by -= Andrew Placid =-
Writing library : core 98 r1649kMod 20cbe10
Encoding settings : cabac=1 / ref=10 / deblock=1:-3:-3 / analyse=0x3:0x113 / me=umh / subme=10 / psy=1 / psy_rd=1.00:0.00 / mixed_ref=1 / me_range=32 / chroma_me=1 / trellis=2 / 8x8dct=1 / cqm=0 / deadzone=21,11 / fast_pskip=0 / chroma_qp_offset=-2 / threads=6 / sliced_threads=0 / nr=0 / decimate=0 / interlaced=0 / constrained_intra=0 / bframes=9 / b_pyramid=2 / b_adapt=2 / b_bias=0 / direct=1 / weightb=1 / weightp=2 / keyint=250 / keyint_min=25 / scenecut=40 / intra_refresh=0 / rc=crf / mbtree=0 / crf=16.7000 / qcomp=0.60 / qpmin=10 / qpmax=51 / qpstep=4 / ip_ratio=1.40 / pb_ratio=1.30 / aq=1:0.8
Language : English
Default : No
Forced : No

Audio #1
ID : 2
Format : AC-3
Format/Info : Audio Coding 3
Codec ID : A_AC3
Duration : 1 h 40 min
Bit rate mode : Constant
Bit rate : 192 kb/s
Channel(s) : 2 channels
Channel positions : Front: L R
Sampling rate : 48.0 kHz
Frame rate : 31.250 FPS (1536 SPF)
Bit depth : 16 bits
Compression mode : Lossy
Stream size : 138 MiB (3%)
Title : [UA-MVO-NLO]
Language : Ukrainian
Service kind : Complete Main
Default : Yes
Forced : Yes

Audio #2
ID : 3
Format : AC-3
Format/Info : Audio Coding 3
Codec ID : A_AC3
Duration : 1 h 40 min
Bit rate mode : Constant
Bit rate : 192 kb/s
Channel(s) : 2 channels
Channel positions : Front: L R
Sampling rate : 48.0 kHz
Frame rate : 31.250 FPS (1536 SPF)
Bit depth : 16 bits
Compression mode : Lossy
Stream size : 138 MiB (3%)
Title : [UA-MVO-ICTV]
Language : Ukrainian
Service kind : Complete Main
Default : No
Forced : No

Audio #3
ID : 4
Format :
Format/Info : Digital Theater Systems
Codec ID : A_DTS
Duration : 1 h 40 min
Bit rate mode : Constant
Bit rate : 1 509 kb/s
Channel(s) : 6 channels
Channel positions : Front: L C R, Side: L R, LFE
Sampling rate : 48.0 kHz
Frame rate : 93.750 FPS (512 SPF)
Bit depth : 16 bits
Compression mode : Lossy
Stream size : 1.06 GiB (22%)
Title : 5.1ch 1536 kbps
Language : English
Default : No
Forced : No

Audio #4
ID : 5
Format : AC-3
Format/Info : Audio Coding 3
Codec ID : A_AC3
Duration : 1 h 40 min
Bit rate mode : Constant
Bit rate : 192 kb/s
Channel(s) : 2 channels
Channel positions : Front: L R
Sampling rate : 48.0 kHz
Frame rate : 31.250 FPS (1536 SPF)
Bit depth : 16 bits
Compression mode : Lossy
Stream size : 138 MiB (3%)
Title : 2.0ch 192 kbps
Language : English
Service kind : Complete Main
Default : No
Forced : No

Text
ID : 6
Format : UTF-8
Codec ID : S_TEXT/UTF8
Codec ID/Info : UTF-8 Plain Text
Duration : 1 h 35 min
Bit rate : 48 b/s
Count of elements : 1219
Stream size : 33.6 KiB (0%)
Language : English
Default : No
Forced : No

Menu
00:00:00.000 : en:Death on the Diamond/Main Title
00:05:01.175 : en:"He's Not Right"
00:11:24.392 : en:Burning Down the House
00:17:18.287 : en:Codename: Trixie
00:28:02.472 : en:Containment Protocol
00:35:28.543 : en:Prisoners of Madness
00:42:34.551 : en:Hell Town
00:53:03.680 : en:No Place Like Home
01:00:07.812 : en:Drive-Thru Ambush
01:13:30.322 : en:"So Let It Mean Something"
01:16:27.165 : en:Last Exit For the Lost
01:33:04.996 : en:End Credits






За українські доріжки подяка п.: Sando7, Skiff, bambulla, patriot2305
Джерело: &
Особиста оцінка: 0 - не дивився
Шалені / The Crazies (2010) 720p 2xUkr/Eng | Sub Eng Шалені / The Crazies (2010) 720p 2xUkr/Eng | Sub Eng


 Трекер:    Зареєстрований   

Завантажити / скачати фільм українською



відео для новачків



 Зареєстрований:   2018-11-09 21:49
 Розмір:   4.76 GB 
 Оцінка фільму:   8.8/10 (Голосів: 8)
   
Інші релізи
   Шалені / The Crazies (2010) AVC 2xUkr/Eng staf777  0 / 0   2.14 GB   2018-11-09 15:38 
   Шалені / The Crazies (2010) 1080p 2хUkr/Eng | Sub Eng drop_plz  4 / 0   7.56 GB   2018-09-02 08:13 
   Шалені / The Crazies (2010) 2хUkr patriot2305  2 / 0   1.42 GB   2014-04-27 07:05 
   Шалені / The Crazies (2010) 720p Ukr/Eng | Sub Eng patriot2305  0 / 0   3.92 GB   2012-04-12 18:38 
   Шалені / The Crazies (2010) Skiff  1 / 0   1.45 GB   2011-03-06 18:44 
bot 
робот


З нами з: 30.09.07
Востаннє: 26.05.05
Повідомлень: 25548

2018-11-09 21:49  
Тему перенесено з Анонси релізів до форуму Фільми в HD


staf777

Ваш часовий пояс: GMT + 2 Години

Нова тема   Відповісти