Шалені / The Crazies (2010) AVC 2xUkr/Eng

Нові коментарі

Нова тема   Відповісти
Автор Повідомлення
staf777 
Відео Гуртом - підтримка та поширення
Відео Гуртом - підтримка та поширення


З нами з: 16.11.16
Востаннє: 21.04.19
Повідомлень: 2275

2018-11-09 15:38  
Шалені / The Crazies (2010) AVC 2xUkr/Eng

Шалені / The Crazies (2010) AVC 2xUkr/Eng


Жанр: жахи, містика, трилер
Країна: США, ОАЕ



Кінокомпанія: Overture Films, Participant Media, Imagenation Abu Dhabi FZ
Режисер: Брек Ейснер
Актори: Тімоті Оліфант, Рада Мітчел, Джо Андерсон, Даніель Панабейкер, Крісті Лінн Сміт, Ліза К. Віатт, Бретт Рікабі, Престон Бейлі, Джон Ейлворд, Джастін Велборн, Ларрі Седар

Сюжет:
На околицях невеликого містечка падає літак, на борту якого знаходиться прототип біологічної зброї, призначення якої створювати хаос у ворога. Прототип потрапляє у водну систему міста, і хаос починається...


Тривалість: 01:40:45
Якість: AVC
Відео:
кодек:
розмір кадру: 1024x424
бітрейт: 2210 кб/с

Аудіо # 1:
мова: українська
переклад: багатоголосий закадровий
кодек: 2.0
бітрейт: 192 кб/с

Аудіо # 2:
мова: українська
переклад: багатоголосий закадровий
кодек: 2.0
бітрейт: 192 кб/с

Аудіо # 3:
мова: англійська
переклад: оригінал
кодек: 5.1
бітрейт: 448 кб/с
MI
General
Unique ID : 247655303509918867231182381499387605624 (0xBA50AD2E8DCCAC5FC48A28BF45B5F278)
Complete name : S:\The Crazies (2010) AVC [2xUKR][ENG] [Hurtom].
Format :
Format version : Version 4 / Version 2
File size : 2.14 GiB
Duration : 1 h 40 min
Overall bit rate : 3 040 kb/s
Movie name : The Crazies (2010) AVC [2xUKR][ENG] [Hurtom]
Encoded date : UTC 2018-11-09 10:29:36
Writing application : v24.0.0 ('Beyond The Pale') 64-bit
Writing library : libebml v1.3.6 + v1.4.9
Cover : Yes
Attachments : cover.jpg

Video
ID : 1
Format : AVC
Format/Info : Advanced Video Codec
Format profile : [email protected]
Format settings : CABAC / 9 Ref Frames
Format settings, CABAC : Yes
Format settings, ReFrames : 9 frames
Codec ID : V_MPEG4/ISO/AVC
Duration : 1 h 40 min
Bit rate : 2 210 kb/s
Width : 1 024 pixels
Height : 424 pixels
Display aspect ratio : 2.40:1
Frame rate mode : Constant
Frame rate : 23.976 FPS
Color space : YUV
Chroma subsampling : 4:2:0
Bit depth : 8 bits
Scan type : Progressive
Bits/(Pixel*Frame) : 0.212
Stream size : 1.55 GiB (73%)
Writing library : core 92 r1510 33d382a
Encoding settings : cabac=1 / ref=9 / deblock=1:-3:-3 / analyse=0x3:0x133 / me=hex / subme=6 / psy=1 / psy_rd=1.00:0.10 / mixed_ref=1 / me_range=16 / chroma_me=1 / trellis=2 / 8x8dct=1 / cqm=0 / deadzone=21,11 / fast_pskip=0 / chroma_qp_offset=-3 / threads=6 / sliced_threads=0 / nr=0 / decimate=1 / interlaced=0 / constrained_intra=0 / bframes=3 / b_pyramid=2 / b_adapt=0 / b_bias=0 / direct=3 / wpredb=0 / wpredp=0 / keyint=250 / keyint_min=25 / scenecut=40 / intra_refresh=0 / rc_lookahead=40 / rc=2pass / mbtree=1 / bitrate=2210 / ratetol=1.0 / qcomp=0.60 / qpmin=10 / qpmax=51 / qpstep=4 / cplxblur=20.0 / qblur=0.5 / ip_ratio=1.40 / aq=1:1.00
Language : English
Default : Yes
Forced : No

Audio #1
ID : 2
Format : AC-3
Format/Info : Audio Coding 3
Codec ID : A_AC3
Duration : 1 h 40 min
Bit rate mode : Constant
Bit rate : 192 kb/s
Channel(s) : 2 channels
Channel positions : Front: L R
Sampling rate : 48.0 kHz
Frame rate : 31.250 FPS (1536 SPF)
Bit depth : 16 bits
Compression mode : Lossy
Stream size : 138 MiB (6%)
Title : [UA-MVO-NLO]
Language : Ukrainian
Service kind : Complete Main
Default : Yes
Forced : Yes

Audio #2
ID : 3
Format : AC-3
Format/Info : Audio Coding 3
Codec ID : A_AC3
Duration : 1 h 40 min
Bit rate mode : Constant
Bit rate : 192 kb/s
Channel(s) : 2 channels
Channel positions : Front: L R
Sampling rate : 48.0 kHz
Frame rate : 31.250 FPS (1536 SPF)
Bit depth : 16 bits
Compression mode : Lossy
Stream size : 138 MiB (6%)
Title : [UA-MVO-ICTV]
Language : Ukrainian
Service kind : Complete Main
Default : No
Forced : No

Audio #3
ID : 4
Format : AC-3
Format/Info : Audio Coding 3
Codec ID : A_AC3
Duration : 1 h 40 min
Bit rate mode : Constant
Bit rate : 448 kb/s
Channel(s) : 6 channels
Channel positions : Front: L C R, Side: L R, LFE
Sampling rate : 48.0 kHz
Frame rate : 31.250 FPS (1536 SPF)
Bit depth : 16 bits
Скріншоти





За українські доріжки подяка п.: Sando7, Skiff, bambulla, patriot2305
Джерело: &
Особиста оцінка: 0 - не дивився
Шалені / The Crazies (2010) AVC 2xUkr/Eng Шалені / The Crazies (2010) AVC 2xUkr/Eng


 Трекер:    Зареєстрований   

Завантажити / скачати фільм українською



відео для новачків



 Зареєстрований:   2018-11-09 15:38
 Розмір:   2.14 GB 
 Оцінка фільму:   8.8/10 (Голосів: 8)
   
Інші релізи
   Шалені / The Crazies (2010) 720p 2xUkr/Eng | Sub Eng staf777  2 / 0   4.76 GB   2018-11-09 21:49 
   Шалені / The Crazies (2010) 1080p 2хUkr/Eng | Sub Eng drop_plz  2 / 0   7.56 GB   2018-09-02 08:13 
   Шалені / The Crazies (2010) 2хUkr patriot2305  4 / 0   1.42 GB   2014-04-27 07:05 
   Шалені / The Crazies (2010) 720p Ukr/Eng | Sub Eng patriot2305  2 / 1   3.92 GB   2012-04-12 18:38 
   Шалені / The Crazies (2010) Skiff  0 / 0   1.45 GB   2011-03-06 18:44 
Ваш часовий пояс: GMT + 2 Години

Нова тема   Відповісти