Шиммер та Шайн / Shimmer and Shine (Сезон 3) (2018) 1080p

Нові коментарі

Нова тема   Відповісти
Автор Повідомлення
sergiyko.5 
Забанено
Забанено


З нами з: 25.02.16
Востаннє: 29.10.20
Повідомлень: 3648

2018-11-09 12:31  


Шиммер та Шайн / Shimmer and Shine (Сезон 3) (2018) 1080p

Шиммер та Шайн / Shimmer and Shine (Сезон 3) (2018) 1080p

Жанр: пригоди, комедія
Країна: США
Режисер: Фред Осмонд, Скотт О’Брайєн, Фаназ Еснашарі, Дейв Каннінгем

Сюжет:
У маленької дівчинки Леї є парочка чудових джинів, сестри-близнючки на ймення Шиммер та Шайн. Кожній дитині в дитинстві хочеться зустрітися хоча б із одним джином, щоб той виконав хоча б єдине заповітне бажання. А ось дівчинці Леї дуже пощастило, у неї з'явилося одразу двоє! Вони часто-густо роблять помилки, коли виконують бажання дівчини, але мала анітрохи не засмучується. Шиммер та Шайн обов'язково все виправлять, і головне – з ними зовсім немає часу нудьгувати.




Тривалість: 1 серія: 22:00 (цілком серій: 20 з 20)
Якість:

Відео: кодек: розмір кадру: 1920 х 1080 бітрейт: 4100 кб/с
Аудіо : мова: українська переклад: професійний дубльований кодек: 2.0 бітрейт: 256 кб/с
Озвучення:
Перелік серій
01 Підземний світ / Джин – стирач бажань
02 Джин на один день / Зак – детектив без справи
03 Пригоди з килимом / Драконячі історії
04 Саміра і Зіта / Дотик Зіти
05 Возз'єднання сім'ї Назбу / Кулезвір
06 Веселкова Зарамай
07 Із зачісками та без / Сила квітів
08 Магія танцю
09 Собача радість / Учень чаклунки
10 Магія – стоп / Ночівля на дереві
11 Хай корабель пливе / Водяна злодійка
12 Усе, що блищить / Лови самоцвіт
13 Блискучі проблеми / Кристальний хаос
14 Зимові розваги / Змагання улюбленців
15 Сни Зарамай / Обережно з бажаннями
16 Ніла на суші / Сон Зіти
17 Лошадка для Шаї / Особлива доставка
18 Зара-сяйво, Зара-блиск
19 Сміливість / Назбу і магічне казу
20 A Pirate Genie's Life for Me-Wacky Wishes
Про файл:
General
Unique ID : 328018276155634145895299528744611249184 (0xF6C605A41D5DA5064DF42C19E7CE7C20)
Complete name : E:\MULTFILMS\Shimmer and Shine S03 1080p \S03E01.Underground Bound-Wishy Washy Genie.1080p..
Format :
Format version : Version 4
File size : 674 MiB
Duration : 21 min 36 s
Overall bit rate : 4 362 kb/s
Movie name : Shimmer and Shine S03 1080p by sergiyko
Encoded date : UTC 2018-11-09 09:11:03
Writing application : v28.1.0 ('Morning Child') 64-bit
Writing library : libebml v1.3.6 + v1.4.9

Video
ID : 1
Format : AVC
Format/Info : Advanced Video Codec
Format profile : [email protected]
Format settings : CABAC / 6 Ref Frames
Format settings, CABAC : Yes
Format settings, ReFrames : 6 frames
Codec ID : V_MPEG4/ISO/AVC
Duration : 21 min 36 s
Bit rate : 4 104 kb/s
Width : 1 920 pixels
Height : 1 080 pixels
Display aspect ratio : 16:9
Frame rate mode : Constant
Frame rate : 25.000 FPS
Color space : YUV
Chroma subsampling : 4:2:0
Bit depth : 8 bits
Scan type : Progressive
Bits/(Pixel*Frame) : 0.079
Stream size : 634 MiB (94%)
Language : English
Default : Yes
Forced : No

Audio
ID : 2
Format : LC
Format/Info : Advanced Audio Codec Low Complexity
Codec ID : A_AAC-2
Duration : 21 min 36 s
Bit rate : 256 kb/s
Channel(s) : 2 channels
Channel layout : L R
Sampling rate : 44.1 kHz
Frame rate : 43.066 FPS (1024 SPF)
Compression mode : Lossy
Stream size : 39.6 MiB (6%)
Language : Ukrainian
Default : Yes
Forced : No
Скріншоти:


Запис/ріп: sergiyko


Бронзовий реліз (на рейтинг впливає 75% завантаженого)
 Трекер:    Зареєстрований   

Завантажити / скачати мультфільм українською



відео для новачків



 Зареєстрований:   2020-02-23 17:59
 Розмір:   14.22 GB 
 Оцінка мультсеріалу:   10/10 (Голосів: 6)
   
sergiyko.5 
Забанено
Забанено


З нами з: 25.02.16
Востаннє: 29.10.20
Повідомлень: 3648

2018-12-13 18:48  
Додав нові серії.
Lidia-Lada 
Новенький


З нами з: 11.12.15
Востаннє: 25.02.21
Повідомлень: 2

2019-01-02 16:10  
Превелике дякую!
А 20 серія буде в HD-якості? І коли?

sergiyko.5 
Забанено
Забанено


З нами з: 25.02.16
Востаннє: 29.10.20
Повідомлень: 3648

2019-01-02 16:13  
20 серія з'явиться, коли я знайду запис в якості 1080p.
sergiyko.5 
Забанено
Забанено


З нами з: 25.02.16
Востаннє: 29.10.20
Повідомлень: 3648

2020-02-23 17:59  
Додав 20 серію. Сезон повний. Приємного перегляду!
dart_ua 
Новенький


З нами з: 03.07.18
Востаннє: 07.02.21
Повідомлень: 1

2020-04-05 02:08  
Є хтось тут? не вистачає швидкості.
sergiyko.5 
Забанено
Забанено


З нами з: 25.02.16
Востаннє: 29.10.20
Повідомлень: 3648

2020-04-05 06:50  
dart_ua
О 2 ночі люди зазвичай сплять.

Ваш часовий пояс: GMT + 2 Години

Нова тема   Відповісти