Хімоте Хаус (Будинок Хімоте) (Серії 5 з 12) / Himote House (2018) Jap | Sub Ukr

Нові коментарі

Нова тема   Відповісти
Останній раз роздавалося qit1 (2018-11-15)
Автор Повідомлення
Mitsuruki 
Поважний учасник


З нами з: 27.09.17
Востаннє: 14.11.18
Повідомлень: 215

2018-11-08 17:27  
Хімоте Хаус (Будинок Хімоте) (Серії 5 з 12) / Himote House (2018) Jap | Sub Ukr

Хімоте Хаус (Будинок Хімоте) (Серії 5 з 12) / Himote House (2018) Jap | Sub Ukr


Жанр: Комедія, Пародія
Країна: Японія
Рейтинг: Посилання на MAL 4.60 рейтинг


Кінокомпанія: Bouncy
Режисер: Ішідате Контару
Сюжет:
Комедія без гальм про п'ятьох дівчат та кота, що живуть у великому маєтку в Токіо. Ці дівчатка постійно намагаються не знудитися у великому місті, знайти собі щастя та влаштувати життя. Вечорами вони збираються у вітальні, щоб провести різні дурні конкурси.
Так, а ще в них є суперсили!
Альтернативний постер
Тривалість: 1 серія: 12 хв на серію (цілком серій: 12)
Перелік серій
1. Романс, на який ми заслуговуємо
2. Жіночі справи
3. Я не боюся болі
4. Завтра так точно
5. Найближчі люди пішли…
6. Ходімо додому
В роздачі присутні шрифти з аніме.

Якість:
Відео:
кодек:
розмір кадру: 1280 х 720
бітрейт: 2000 кб/с

Аудіо:
мова: японська
переклад: оригінал
кодек: 2.0
бітрейт: 128 кб/с

Субтитри:
мова: українська
тип: програмні (м'які)
формат: *.
Info
General
Unique ID : 116212365102635642944607050649362046406 (0x576DAFF8861A3F7D72F8464304E51DC6)
Complete name : D:\Video\Himote House [Mitsuruki]\[Mitsuruki] Himote House - 01.
Format :
Format version : Version 4 / Version 2
File size : 185 MiB
Duration : 12 min 0 s
Overall bit rate : 2 153 kb/s
Encoded date : UTC 2018-10-28 19:54:56
Writing application : v26.0.0 ('In The Game') 64-bit
Writing library : libebml v1.3.6 + v1.4.9
Attachments : OpenSans-Semibold.ttf

Video
ID : 1
Format : AVC
Format/Info : Advanced Video Codec
Format profile : [email protected]
Format settings : CABAC / 6 Ref Frames
Format settings, CABAC : Yes
Format settings, ReFrames : 6 frames
Codec ID : V_MPEG4/ISO/AVC
Duration : 11 min 59 s
Bit rate : 2 021 kb/s
Width : 1 280 pixels
Height : 720 pixels
Display aspect ratio : 16:9
Frame rate mode : Constant
Frame rate : 23.976 (24000/1001) FPS
Color space : YUV
Chroma subsampling : 4:2:0
Bit depth : 8 bits
Scan type : Progressive
Bits/(Pixel*Frame) : 0.091
Stream size : 173 MiB (94%)
Writing library : core 142
Encoding settings : cabac=1 / ref=6 / deblock=1:1:1 / analyse=0x3:0x113 / me=umh / subme=8 / psy=1 / psy_rd=0.40:0.00 / mixed_ref=1 / me_range=16 / chroma_me=1 / trellis=1 / 8x8dct=1 / cqm=0 / deadzone=21,11 / fast_pskip=1 / chroma_qp_offset=-2 / threads=10 / lookahead_threads=1 / sliced_threads=0 / nr=0 / decimate=1 / interlaced=0 / bluray_compat=0 / constrained_intra=0 / bframes=3 / b_pyramid=2 / b_adapt=2 / b_bias=0 / direct=3 / weightb=1 / open_gop=0 / weightp=2 / keyint=48 / keyint_min=25 / scenecut=0 / intra_refresh=0 / rc_lookahead=48 / rc=crf / mbtree=1 / crf=15.0 / qcomp=0.60 / qpmin=0 / qpmax=69 / qpstep=4 / vbv_maxrate=4000 / vbv_bufsize=6000 / crf_max=0.0 / nal_hrd=none / filler=0 / ip_ratio=1.40 / aq=1:0.60
Default : Yes
Forced : No

Audio
ID : 2
Format : LC
Format/Info : Advanced Audio Codec Low Complexity
Codec ID : A_AAC-2
Duration : 11 min 59 s
Bit rate : 128 kb/s
Channel(s) : 2 channels
Channel layout : L R
Sampling rate : 44.1 kHz
Frame rate : 43.066 FPS (1024 SPF)
Compression mode : Lossy
Delay relative to video : -83 ms
Stream size : 11.0 MiB (6%)
Language : Japanese
Default : Yes
Forced : No

Text
ID : 3
Format :
Codec ID : S_TEXT/
Codec ID/Info : Advanced Sub Station Alpha
Duration : 12 min 0 s
Bit rate : 253 b/s
Count of elements : 304
Compression mode : Lossless
Stream size : 22.3 KiB (0%)
Title : Mitsuruki
Language : Ukrainian
Default : Yes
Forced : Yes
Скріншоти


Особиста оцінка
Якщо забити на кров, що тече з очей від такого графонію — перед нами непогане аніме.
Тобто, зрозумійте мене правильно — непогане воно лише тому, що пробило дно та виплило на стороні ПЕРЕМОГИ. Звісно, більшість людей, що захочуть перевірити — вимкнуть його вже через 15 секунд. Це правильна реакція на шоу такого роду… але комусь, можливо, сподобається. От мені, наприклад, сподобалося.

Це таке собі радіо-шоу в аніме. Сею вільні в обробці тексту, 3д моделі підлаштовуються вже під їхню манеру вимови. В шоу багато жартів, багато з яких суто японські і їх перекласти без втрат неможливо… але ми стараємося. Це або брудненьке радіо-шоу, або Сауз Парк, з якого вичистили практично увесь бруд.
Оцінка шоу на МАЛі — 4.60, тож ви самі розумієте.

Я вас попередив, приємного перегляду.
Джерело: HorribleSubs і Переклади Mitsuruki
Переклад: Furunze, Vitek


Золотий реліз (завантажене не впливає на рейтинг)
 Трекер:    Зареєстрований   

Завантажити / скачати аніме українською



відео для новачків



 Зареєстрований:   2018-11-09 00:35
 Розмір:   889 MB 
 Оцінка аніме:   -/10 (Голосів: 0)
   
Mitsuruki 
Поважний учасник


З нами з: 27.09.17
Востаннє: 14.11.18
Повідомлень: 215

2018-11-08 17:29  
Ой, перенесіть будь ласка тему в субтитри.

Перепрошую за незручності

EvGaS 
Відео Гуртом - субтитрування
Відео Гуртом - субтитрування


З нами з: 27.02.12
Востаннє: 15.11.18
Повідомлень: 5065

2018-11-08 18:32  
Mitsuruki
там ліворуч унизу сторінки є кнопочка, як ТС можете перенести самі

bot 
робот


З нами з: 30.09.07
Востаннє: 26.05.05
Повідомлень: 20136

2018-11-08 21:59  
Тему перенесено з Аніме до форуму Аніме


Mitsuruki

Mitsuruki 
Поважний учасник


З нами з: 27.09.17
Востаннє: 14.11.18
Повідомлень: 215

2018-11-09 00:35  
EvGaS
Оце так!

Додано через 2 години 36 хвилин 19 секунд:

І одразу нова серія!

11FrYkT 
Модератор відео


З нами з: 20.02.11
Востаннє: 15.11.18
Повідомлень: 5162

2018-11-10 10:14  
Mitsuruki на imdb є
Mitsuruki 
Поважний учасник


З нами з: 27.09.17
Востаннє: 14.11.18
Повідомлень: 215

2018-11-10 13:15  
11FrYkT
Є, але чомусь помилку видало, коли вставити хотів. Не знаю чому, там усе як і треба було зроблено.

EvGaS 
Відео Гуртом - субтитрування
Відео Гуртом - субтитрування


З нами з: 27.02.12
Востаннє: 15.11.18
Повідомлень: 5065

2018-11-10 15:12  
Mitsuruki написано:
там усе як і треба було зроблено.


Код:
https://www.imdb.com/title/tt9074304/?ref_=fn_al_tt_1


Додано через 4 хвилини 21 секунду:

Варто було без ось цього: ?ref_=fn_al_tt_1

А помилку видавало і видає, бо у БД ще її просто немає через брак голосів: чи ніхто ще не проголосував, чи до мінімуму не дібрали, чи якась політика ресурсу щодо тих які ще крутять.

Додано через 46 секунд:

АніДБ:
http://anidb.net/a13629

Ваш часовий пояс: GMT + 2 Години

Нова тема   Відповісти