Адмірал Ревучі потоки / Адмірал: Битва за Мьон Рян / The Admiral: Roaring Currents / The Admiral / 명량 / Myeong-ryang (2014) Kor | sub Ukr

Нові коментарі

Нова тема   Відповісти
Автор Повідомлення
Rashid_Vinogradov 
Новенький


З нами з: 08.11.18
Востаннє: 19.05.19
Повідомлень: 2

2018-11-08 03:41  
Адмірал Ревучі потоки / Адмірал: Битва за Мьон Рян / The Admiral: Roaring Currents / The Admiral / 명량 / Myeong-ryang (2014) Kor, Jap | sub Ukr

Адмірал Ревучі потоки / Адмірал: Битва за Мьон Рян / The Admiral: Roaring Currents / The Admiral / 명량 / Myeong-ryang (2014) Kor | sub Ukr


Жанр: екшн, історичний, воєнний
Країна: Південна Корея



Кінокомпанія: CJ Entertainment, Big Stone Pictures
Режисер: Хань-мін Кім (Han-min Kim)
Актори: Мін-Сік Чой (Min-sik Choi), Сен-рионг Рю (Seung-ryong Ryu), Джин-Вон Чхо (Jin-Woong Cho), Мюн-гон Кім (Myung-gon Kim), Го Джинь (Goo Jin), Юнг-Хюн Лі (Jung-hyun Lee), Рьохей Охтані (Ryôhei Ohtani), Мін-ву Ноу (Min-woo No), Тей-хон Кім (Tae-hoon Kim), Бо Гом Пак (Bo-Gum Park), Сеун-Джон Лі (Seung-Joon Lee), Дук-Мун Чой (Duk-moon Choi)

Сюжет:
Адмірал Лі Сунсін стикається з жорстким викликом, коли він змушений захищати свій народ лише з 13 кораблями проти 300 японських ворожих кораблів у битві при Мьон Рян.


Тривалість: 02:08:20
Якість:
Відео:
кодек:
розмір кадру: 1280 х 720
бітрейт: 2786 кб/с

Аудіо:
мова: корейська, японська
переклад: оригінал
кодек: 2.0
бітрейт: 192 кб/с

Субтитри:
мова: українська
тип: вбудовані (жорсткі)
Info

General
Format : AVI
Format/Info : Audio Video Interleave
Format profile : OpenDML
File size : 2.68 GiB
Duration : 2 h 8 min
Overall bit rate : 2 992 kb/s
Writing library : VirtualDub build 35491/release

Video #0
ID : 0
Format : MPEG-4 Visual
Format profile : Advanced [email protected]
Format settings, BVOP : 2
Format settings, QPel : No
Format settings, GMC : No warppoints
Format settings, Matrix : Default (H.263)
Muxing mode : Packed bitstream
Codec ID :
Codec ID/Hint :
Duration : 2 h 8 min
Bit rate : 2 786 kb/s
Width : 1 280 pixels
Height : 720 pixels
Display aspect ratio : 16:9
Frame rate : 23.976 (23976/1000) FPS
Color space : YUV
Chroma subsampling : 4:2:0
Bit depth : 8 bits
Scan type : Progressive
Compression mode : Lossy
Bits/(Pixel*Frame) : 0.126
Stream size : 2.50 GiB (93%)
Writing library : 64

Audio #1
ID : 1
Format :
Format/Info : Advanced Audio Codec
Format profile : LC
Codec ID : FF
Duration : 2 h 8 min
Bit rate : 192 kb/s
Channel(s) : 2 channels
Channel positions : Front: L R
Sampling rate : 48.0 kHz
Frame rate : 46.875 FPS (1024 spf)
Compression mode : Lossy
Stream size : 174 MiB (6%)
Alignment : Split accross interleaves
Interleave, duration : 21 ms (0.51 video frame)
Interleave, preload duration : 511 ms
Скріншоти




Джерело: ex.ua та Фансаб група U&A
Особиста оцінка: 9 - давно не бачив настільки якісне кіно


Золотий реліз (завантажене не впливає на рейтинг)
 Трекер:    Зареєстрований   

Завантажити / скачати фільм українською



відео для новачків



 Зареєстрований:   2018-11-08 03:45
 Розмір:   2.68 GB 
 Оцінка фільму:   8.4/10 (Голосів: 11)
   
11FrYkT 
Модератор відео


З нами з: 20.02.11
Востаннє: 27.11.20
Повідомлень: 7033

2018-11-08 11:59  
Rashid_Vinogradov написано:

https://img.hurtom.com/image/CHXu
https://img.hurtom.com/image/CHXr
https://img.hurtom.com/image/CHXP

Вставте у вигляді коду, додайте звіт Медіаінфо і вкажіть джерело сабів

Rashid_Vinogradov 
Новенький


З нами з: 08.11.18
Востаннє: 19.05.19
Повідомлень: 2

2018-11-08 16:35  
11FrYkT
Здається, все виправив.

Ще я додав в список жанрів "воєнний" і оскільки деякі розмови в фільмі на японській, то додав згадки про японську мову.

dangervoves 
Новенький


З нами з: 28.10.10
Востаннє: 28.11.20
Повідомлень: 1

2019-10-15 13:07  
Величезне дякую.
deemonmeister 
Свій


З нами з: 24.02.15
Востаннє: 26.11.20
Повідомлень: 50

2020-09-25 20:50  
Фільм муйня повна. Ніякої критики не витримує. Любителям тупої азіатської маханини дивитися з середини, бо до цього моменту взагалі дивитися нема на що. Так, кіно для дошколятків десь на 1+1 посеред робочого тижня вдень. Зупинив. Недодивився бо дивитися се сил немає... Це той випадок коли я дуже шкодую за даремно витрачений вечір. Категорічно не раджу дивитися.
P.S. Якість перекладу не беруся судити, але субтитри шикарні за змістом та подачею. Ні відміну від фільма.

Ваш часовий пояс: GMT + 2 Години

Нова тема   Відповісти