Грабіжники поїздів / The Train Robbers (1973) Remux 1080p Ukr/Eng | Sub Eng

Нові коментарі

Нова тема   Відповісти
Автор Повідомлення
kryk-v.ya. 
Попереджень: 1
Попереджень: 1 


З нами з: 14.02.14
Востаннє: 25.09.20
Повідомлень: 2245

2018-11-07 14:55  
Грабіжники поїздів / The Train Robbers (1973) Remux 1080p Ukr/Eng | Sub Eng

Грабіжники поїздів / The Train Robbers (1973) Remux 1080p Ukr/Eng | Sub Eng


Жанр: вестерн
Країна: США



Кінокомпанія: Batjac Productions
Режисер: Берт Кеннеді
Актори: Джон Вейн, Енн-Маргрет, Рід Тейлор, Бен Джонсон, Крістофер Джордж, Боббі Вінтон, Джеррі Гетлін, Рікардо Монталбан та інші.

Сюжет:
Три ветерана Громадянської війни об'єднуються в одну команду з вдовою грабіжника потягів, щоб відшукати сховані півмільйона доларів. Чарівна вдова, у якої «все на місці», хоче повернути добре ім'я своєму покійному чоловікові.
Троє друзів хочуть допомогти їй і отримати нагороду в $ 50 000. Але спільники покійного хочуть отримати все золото, якщо буде потрібно - вони не роздумуючи розправляться з дамою і її супутниками.


Тривалість: 01:31:53
Якість: Remux 1080p
Відео:
кодек:
розмір кадру: 1920 х 1080
бітрейт: 25 Мб/с

Аудіо # 1:
мова: українська
переклад: багатоголосий закадровий, Так Треба Продакшн
кодек: 2.0
бітрейт: 192 кб/с
примітка: доріжка створена з одноканальної.

Аудіо # 2:
мова: англійська
переклад: оригінал
кодек: -HD MA 1.0
бітрейт: 1047 кб/с

Джерело озвучення:


Субтитри:
мова: англійська
тип: програмні (м'які)
формат: *.srt
Info
General
Unique ID : 55031779994895190806148710022681157029 (0x2966BC3C85ECDBAF29480F2FFB0B5DA5)
Complete name : E:\Train Robbers (1973) Remux 1080p.
Format :
Format version : Version 4 / Version 2
File size : 16.8 GiB
Duration : 1 h 31 min
Overall bit rate mode : Variable
Overall bit rate : 26.2 Mb/s
Encoded date : UTC 2018-11-07 09:50:41
Writing application : v25.0.0 ('Prog Noir') 64-bit
Writing library : libebml v1.3.6 + v1.4.9
Attachments : 0022.jpg

Video
ID : 1
Format : AVC
Format/Info : Advanced Video Codec
Format profile : [email protected]
Format settings : CABAC / 2 Ref Frames
Format settings, CABAC : Yes
Format settings, ReFrames : 2 frames
Codec ID : V_MPEG4/ISO/AVC
Duration : 1 h 31 min
Bit rate mode : Variable
Bit rate : 25.0 Mb/s
Width : 1 920 pixels
Height : 1 080 pixels
Display aspect ratio : 16:9
Frame rate mode : Constant
Frame rate : 23.976 (24000/1001) FPS
Color space : YUV
Chroma subsampling : 4:2:0
Bit depth : 8 bits
Scan type : Progressive
Bits/(Pixel*Frame) : 0.502
Stream size : 16.0 GiB (95%)
Default : Yes
Forced : No

Audio #1
ID : 2
Format : AC-3
Format/Info : Audio Coding 3
Commercial name : Dolby Digital
Codec ID : A_AC3
Duration : 1 h 31 min
Bit rate mode : Constant
Bit rate : 192 kb/s
Channel(s) : 2 channels
Channel layout : L R
Sampling rate : 48.0 kHz
Frame rate : 31.250 FPS (1536 SPF)
Bit depth : 16 bits
Compression mode : Lossy
Stream size : 126 MiB (1%)
Title : ТТП-(Інтер)
Language : Ukrainian
Service kind : Complete Main
Default : Yes
Forced : No

Audio #2
ID : 3
Format : XLL
Format/Info : Digital Theater Systems
Commercial name : -HD Master Audio
Codec ID : A_DTS
Duration : 1 h 31 min
Bit rate mode : Variable
Bit rate : 1 047 kb/s
Channel(s) : 1 channel
Channel layout : C
Sampling rate : 48.0 kHz
Frame rate : 93.750 FPS (512 SPF)
Bit depth : 24 bits
Compression mode : Lossless
Stream size : 688 MiB (4%)
Language : English
Default : No
Forced : No

Text
ID : 4
Format : UTF-8
Codec ID : S_TEXT/UTF8
Codec ID/Info : UTF-8 Plain Text
Duration : 1 h 31 min
Bit rate : 42 b/s
Count of elements : 771
Stream size : 28.7 KiB (0%)
Language : English
Default : Yes
Forced : No
Скріншоти






Джерело: &
Особиста оцінка: 10 - без зайвих вагань рекомендую всім!

Велика подяка пану Romario_O за доріжку.


Золотий реліз (завантажене не впливає на рейтинг)
 Трекер:    Зареєстрований   

Завантажити / скачати фільм українською



відео для новачків



 Зареєстрований:   2018-11-07 14:55
 Розмір:   16.81 GB 
 Оцінка фільму:   9.6/10 (Голосів: 11)
   
Інші релізи
MakRA 
VIP


З нами з: 11.11.18
Востаннє: 25.09.20
Повідомлень: 1120

2018-11-15 21:19  
Супер. Величезне дякую!!! Качаю, роздаю і рекомендую!
Ваш часовий пояс: GMT + 2 Години

Нова тема   Відповісти