Стен проти сил зла (Сезон 1) / Stan Against Evil (Season 1) (2016) 720p Ukr/Eng | Sub Eng

Нові коментарі

Нова тема   Відповісти
Автор Повідомлення
Anonymous 







2018-11-06 20:09  
Стен проти сил зла (Сезон 1) / Stan Against Evil (Season 1) (2016) 720p Ukr/Eng | Sub Eng



Жанр: комедія, жахи
Країна: США



Кінокомпанія: 3 Arts Entertainment, IFC.
Режисер: Джек Бішоп
Актори: Даніель Фелан, Мік Ігніс, Грегорі Нассіф Ст. Джон, Джон К. МакГінлі, Джанет Верні, Нат Муні, Чарльз Грін, Дебора Бейкер мл., Д.Л. Андерсон

Сюжет:
У невеликому провінційному містечку з багатою історією живе головний герой – Стенлі Міллер, який переживає зараз непростий період. Кілька тижнів тому чоловік поховав свою кохану дружину, після чого він «зірвався» і влаштував істерику на кладовищі. Ця витівка позбавила його роботи – у героя відібрали посаду шерифа. А тепер йому ще й доводиться виховувати (доньку?) Деніз самостійно, що досить не просто, враховуючи незвичайність дівчинки. Ось і виходить, що замість законного відпочинку Стен отримує купу нових турбот. Ситуація ускладнюється, коли місто починають заповнювати жахливі істоти: відьми, привиди, демони і всілякі монстри. А сам містер Міллер раптово дізнається, що в минулому його дружина, колишня (талановита?) відьма, активно боролася з цим створіннями, поєднуючи охорону містечка з подружніми обов'язками. І тепер це завдання Стену належить узяти на себе, адже безпорадна жінка-шериф Іві Баррет точно не впорається з чудовиськами – разом зі своїм помічником Леоном вона заледве справляється зі звичайними злочинцями.


Тривалість: 1 серія: 22хв (цілком серій: 8 з 8)
Перелік серій
Stan Against Evil. Season 1, Episode 1. Dig Me Up, Dig Me Down
Stan Against Evil. Season 1, Episode 2. Know, Know, Know Your Goat
Stan Against Evil. Season 1, Episode 3. Let Your Love Groan
Stan Against Evil. Season 1, Episode 4. Life Orr Death
Stan Against Evil. Season 1, Episode 5. Ouija Bored
Stan Against Evil. Season 1, Episode 6. I'm Gleaning My Coven
Stan Against Evil. Season 1, Episode 7. Spider Walk with Me
Stan Against Evil. Season 1, Episode 8. Level Boss
Якість:
Відео:
кодек:
розмір кадру: 1280 х 718
бітрейт: 4020 кб/с

Аудіо # 1:
мова: українська
переклад: багатоголосий закадровий
кодек: 2.0
бітрейт: 192 кб/с

Аудіо # 2:
мова: англійська
переклад: оригінал
кодек: 5.1
бітрейт: 384 кб/с

Субтитри:
мова: англійська
тип: програмні (м'які)
формат: *.srt
Info
Format :
Format version : Version 4
File size : 719 MiB
Duration : 21 min 50 s
Overall bit rate : 4 603 kb/s
Encoded date : UTC 2018-11-03 19:30:55
Writing application : v28.2.0 ('The Awakening') 64-bit
Writing library : libebml v1.3.6 + v1.4.9
Cover : Yes
Attachments : cover.png

Video
ID : 1
Format : AVC
Format/Info : Advanced Video Codec
Format profile : [email protected]
Format settings : 2 Ref Frames
Format settings, CABAC : No
Format settings, ReFrames : 2 frames
Codec ID : V_MPEG4/ISO/AVC
Duration : 21 min 50 s
Bit rate : 4 020 kb/s
Width : 1 280 pixels
Height : 718 pixels
Display aspect ratio : 16:9
Frame rate mode : Constant
Frame rate : 23.976 (24000/1001) FPS
Color space : YUV
Chroma subsampling : 4:2:0
Bit depth : 8 bits
Scan type : Progressive
Bits/(Pixel*Frame) : 0.182
Stream size : 628 MiB (87%)
Language : English
Default : Yes
Forced : No
Color range : Limited
Color primaries : BT.709
Transfer characteristics : BT.709
Matrix coefficients : BT.709

Audio #1
ID : 2
Format : AC-3
Format/Info : Audio Coding 3
Commercial name : Dolby Digital
Codec ID : A_AC3
Duration : 21 min 50 s
Bit rate mode : Constant
Bit rate : 192 kb/s
Channel(s) : 2 channels
Channel layout : L R
Sampling rate : 48.0 kHz
Frame rate : 31.250 FPS (1536 SPF)
Bit depth : 16 bits
Compression mode : Lossy
Stream size : 30.0 MiB (4%)
Title : AMC
Language : Ukrainian
Service kind : Complete Main
Default : Yes
Forced : No

Audio #2
ID : 3
Format : AC-3
Format/Info : Audio Coding 3
Commercial name : Dolby Digital
Codec ID : A_AC3
Duration : 21 min 50 s
Bit rate mode : Constant
Bit rate : 384 kb/s
Channel(s) : 6 channels
Channel layout : L R C LFE Ls Rs
Sampling rate : 48.0 kHz
Frame rate : 31.250 FPS (1536 SPF)
Bit depth : 16 bits
Compression mode : Lossy
Stream size : 60.0 MiB (8%)
Language : English
Service kind : Complete Main
Default : No
Forced : No

Text
ID : 4
Format : UTF-8
Codec ID : S_TEXT/UTF8
Codec ID/Info : UTF-8 Plain Text
Duration : 21 min 36 s
Bit rate : 77 b/s
Count of elements : 443
Stream size : 12.2 KiB (0%)
Language : English
Default : No
Forced : No
Скріншоти





Подяки: Анонімусу з sd - релізу за доріжки та зведення.
Джерело:
Особиста оцінка: 8 - мені сподобалося



Бронзовий реліз (на рейтинг впливає 75% завантаженого)
 Трекер:    Зареєстрований   

Завантажити / скачати серіал українською



відео для новачків



 Зареєстрований:   2018-11-06 20:09
 Розмір:   5.58 GB 
 Оцінка серіалу:   8.3/10 (Голосів: 8)
   
Ваш часовий пояс: GMT + 2 Години

Нова тема   Відповісти