Чорна книга (Black Book) / Zwartboek (2006) 720p 2xUkr/Ger | Sub Ukr/Eng

Нові коментарі

Нова тема   Відповісти
Автор Повідомлення
staf777 
Відео Гуртом - підтримка та поширення
Відео Гуртом - підтримка та поширення


З нами з: 16.11.16
Востаннє: 17.11.19
Повідомлень: 3031

2018-11-06 15:27  
Чорна книга (Black Book) / Zwartboek (2006) 720p 2xUkr/Ger | Sub Ukr/Eng

Чорна книга (Black Book) / Zwartboek (2006) 720p 2xUkr/Ger | Sub Ukr/Eng
Оригінальний постер



Жанр: драма, трилер, військовий
Країна: Німеччина, Нідерланди, Бельгія



Кінокомпанія: Fu Works, Egoli Tossell Film, Clockwork Pictures
Режисер: Пауль Верговен (Paul Verhoeven)
Актори: Керіс ван Гутен (Carice van Houten), Себастіан Кох (Sebastian Koch), Том Хоффман (Thom Hoffman), Валдемар Кобас (Waldemar Kobus), Дерек де Лінт (Derek de Lint), Крістіан Беркель (Christian Berkel) та інші.

Сюжет:
Події фільму „Чорна книга” розгортаються часів Другої світової війни. Героїня – громадяка Німеччини єврейського походження, яка, рятуючись від нацистського геноциду, знаходить прихисток у Нідерландах, де приєднується до руху Спротиву.


Тривалість: 02:25:38
Якість:
Відео:
кодек:
розмір кадру: 1280x544
бітрейт: 5869 кб/с

Аудіо # 1:
мова: українська
переклад: багатоголосий закадровий
кодек: 2.0
бітрейт: 192 кб/с

Аудіо # 2:
мова: українська
переклад: багатоголосий закадровий "Так Треба Продакшн" на замовлення "Інт Вест Дистриб'юшн"
кодек: 2.0
бітрейт: 192 кб/с

Аудіо # 3:
мова: німецька
переклад: оригінал
кодек: 5.1
бітрейт: 640 кб/с

Субтитри:
мова: українська
тип: програмні (м'які)
формат: *.srt

Субтитри:
мова: англійська
тип: програмні (м'які)
формат: *.srt
Info
General
Unique ID : 54676077541591206623083653007967319998 (0x29223AC05FD240F7DF0D42EF6864F7BE)
Complete name : N:\ Zwartboek (Black Book) (2006) 720p [2xUA][DUT][Hurtom].
Format :
Format version : Version 4 / Version 2
File size : 7.00 GiB
Duration : 2 h 25 min
Overall bit rate : 6 885 kb/s
Movie name : Zwartboek (Black Book) (2006) 720p [2xUA][DUT][Hurtom]
Encoded date : UTC 2018-11-06 14:25:07
Writing application : v24.0.0 ('Beyond The Pale') 64-bit
Writing library : libebml v1.3.6 + v1.4.9
Cover : Yes
Attachments : cover.jpg / cover.jpg

Video
ID : 1
Format : AVC
Format/Info : Advanced Video Codec
Format profile : [email protected]
Format settings : CABAC / 9 Ref Frames
Format settings, CABAC : Yes
Format settings, ReFrames : 9 frames
Codec ID : V_MPEG4/ISO/AVC
Duration : 2 h 25 min
Bit rate : 5 869 kb/s
Width : 1 280 pixels
Height : 544 pixels
Display aspect ratio : 2.35:1
Frame rate mode : Constant
Frame rate : 23.976 (24000/1001) FPS
Color space : YUV
Chroma subsampling : 4:2:0
Bit depth : 8 bits
Scan type : Progressive
Bits/(Pixel*Frame) : 0.352
Stream size : 5.96 GiB (85%)
Title : Zwartboek (2006)
Writing library : core 146 r2538 121396c
Encoding settings : cabac=1 / ref=9 / deblock=1:-3:-3 / analyse=0x3:0x113 / me=umh / subme=11 / psy=1 / psy_rd=1.00:0.00 / mixed_ref=1 / me_range=32 / chroma_me=1 / trellis=2 / 8x8dct=1 / cqm=0 / deadzone=21,11 / fast_pskip=0 / chroma_qp_offset=-2 / threads=6 / lookahead_threads=1 / sliced_threads=0 / nr=0 / decimate=1 / interlaced=0 / bluray_compat=0 / constrained_intra=0 / bframes=7 / b_pyramid=2 / b_adapt=2 / b_bias=0 / direct=3 / weightb=1 / open_gop=0 / weightp=2 / keyint=240 / keyint_min=23 / scenecut=40 / intra_refresh=0 / rc_lookahead=60 / rc=2pass / mbtree=1 / bitrate=5869 / ratetol=1.0 / qcomp=0.60 / qpmin=0 / qpmax=69 / qpstep=4 / cplxblur=20.0 / qblur=0.5 / vbv_maxrate=50000 / vbv_bufsize=62500 / nal_hrd=none / filler=0 / ip_ratio=1.40 / aq=1:1.00
Language : English
Default : Yes
Forced : No

Audio #1
ID : 2
Format : AC-3
Format/Info : Audio Coding 3
Codec ID : A_AC3
Duration : 2 h 25 min
Bit rate mode : Constant
Bit rate : 192 kb/s
Channel(s) : 2 channels
Channel positions : Front: L R
Sampling rate : 48.0 kHz
Frame rate : 31.250 FPS (1536 SPF)
Bit depth : 16 bits
Compression mode : Lossy
Stream size : 200 MiB (3%)
Title : [UA-MVO-1+1]
Language : Ukrainian
Service kind : Complete Main
Default : Yes
Forced : Yes

Audio #2
ID : 3
Format : AC-3
Format/Info : Audio Coding 3
Codec ID : A_AC3
Duration : 2 h 25 min
Bit rate mode : Constant
Bit rate : 192 kb/s
Channel(s) : 2 channels
Channel positions : Front: L R
Sampling rate : 48.0 kHz
Frame rate : 31.250 FPS (1536 SPF)
Bit depth : 16 bits
Compression mode : Lossy
Stream size : 200 MiB (3%)
Title : [UA-MVO-"Так Треба Продакшн"]
Language : Ukrainian
Service kind : Complete Main
Default : No
Forced : No

Audio #3
ID : 4
Format : AC-3
Format/Info : Audio Coding 3
Codec ID : A_AC3
Duration : 2 h 25 min
Bit rate mode : Constant
Bit rate : 640 kb/s
Channel(s) : 6 channels
Channel positions : Front: L C R, Side: L R, LFE
Sampling rate : 48.0 kHz
Frame rate : 31.250 FPS (1536 SPF)
Bit depth : 16 bits
Compression mode : Lossy
Stream size : 667 MiB (9%)
Title : Original
Language : Dutch
Service kind : Complete Main
Default : No
Forced : No

Text #1
ID : 5
Format : UTF-8
Codec ID : S_TEXT/UTF8
Codec ID/Info : UTF-8 Plain Text
Duration : 2 h 17 min
Bit rate : 70 b/s
Count of elements : 1067
Stream size : 70.5 KiB (0%)
Title : Full
Language : Ukrainian
Default : No
Forced : No

Text #2
ID : 6
Format : UTF-8
Codec ID : S_TEXT/UTF8
Codec ID/Info : UTF-8 Plain Text
Duration : 2 h 17 min
Bit rate : 40 b/s
Count of elements : 1303
Stream size : 40.5 KiB (0%)
Title : Full
Language : English
Default : No
Forced : No

Menu
00:00:00.000 : en:Chapter 1
00:08:12.283 : en:Chapter 2
00:15:25.966 : en:Chapter 3
00:25:08.798 : en:Chapter 4
00:34:57.762 : en:Chapter 5
00:45:45.784 : en:Chapter 6
00:50:36.742 : en:Chapter 7
01:01:15.380 : en:Chapter 8
01:11:21.193 : en:Chapter 9
01:18:03.512 : en:Chapter 10
01:27:57.939 : en:Chapter 11
01:34:44.428 : en:Chapter 12
01:45:51.970 : en:Chapter 13
01:55:33.509 : en:Chapter 14
02:06:57.568 : en:Chapter 15
02:15:50.725 : en:Chapter 16







MAKAPOHHIK запис доріжки № 1,
dvorsky запис доріжки № 2.
robotron005 - синхронізація

Джерело: &
Особиста оцінка: 0 - не дивився
Чорна книга (Black Book) / Zwartboek (2006) 720p 2xUkr/Ger | Sub Ukr/Eng Чорна книга (Black Book) / Zwartboek (2006) 720p 2xUkr/Ger | Sub Ukr/Eng


 Трекер:    Зареєстрований   

Завантажити / скачати фільм українською



відео для новачків



 Зареєстрований:   2018-11-06 19:05
 Розмір:   7 GB 
 Оцінка фільму:   9.6/10 (Голосів: 8)
   
Інші релізи
bot 
робот


З нами з: 30.09.07
Востаннє: 26.05.05
Повідомлень: 22477

2018-11-06 19:05  
Тему перенесено з Анонси релізів до форуму Фільми в HD


staf777

Ваш часовий пояс: GMT + 2 Години

Нова тема   Відповісти