Добре на природі / The Great Outdoors (1988) AVC 2xUkr/Eng

Нові коментарі

Нова тема   Відповісти
Автор Повідомлення
staf777 
Відео Гуртом - підтримка та поширення
Відео Гуртом - підтримка та поширення


З нами з: 16.11.16
Востаннє: 20.04.19
Повідомлень: 2272

2018-11-06 10:46  
Добре на природі / The Great Outdoors (1988) AVC 2xUkr/Eng

Добре на природі / The Great Outdoors (1988) AVC 2xUkr/Eng


Жанр: комедія, пригодницький
Країна: США



Кінокомпанія: Hughes Entertainment, Universal Pictures See more
Режисер: Говард Дойч
Актори: Ден Ейкройд, Джон Кенді, Стефані Ферасі, Аннет Бенінг, Кріс Янґ, Єн Джіатті, Гіларі Гордон, Ребекка Гордон, Роберт Проскі

Сюжет:
Чет Ріплі вирушає відпочити з дружиною Конні і двома синами на природу, у містечко, де він колись відпочивав зі своїм батьком. Він хоче побути наодинці з природою, провести час тихо, спокійно, поспілкуватися з дітьми... Але тут несподівано приїжджає сестра дружини Кейт з багатим, самовдоволеним і огидним чоловіком і двома доньками - двійнятами і спокійний відпочинок летить коту під хвіст...


Тривалість: 01:30:24
Якість: AVC
Відео:
кодек:
розмір кадру: 1024x552
бітрейт: 2850 кб/с

Аудіо # 1:
мова: українська
переклад: багатоголосий закадровий
кодек: 2.0
бітрейт: 192 кб/с

Аудіо # 2:
мова: українська
переклад: багатоголосий закадровий
кодек: 2.0
бітрейт: 192 кб/с

Аудіо # 3:
мова: англійська
переклад: оригінал
кодек: 2.0
бітрейт: 192 кб/с
Info
General
Unique ID : 69799509107691926635481403548283701371 (0x3482E57F04D13DF46B48D87B47DC087B)
Complete name : N:\Фільми AVC\Комедія\The Great Outdoors (1988) AVC [2xUA][ENG][Hurtom].
Format :
Format version : Version 4 / Version 2
File size : 2.16 GiB
Duration : 1 h 30 min
Overall bit rate : 3 429 kb/s
Movie name : The Great Outdoors (1988) AVC [2xUA][ENG][Hurtom]
Encoded date : UTC 2018-11-06 13:57:45
Writing application : v24.0.0 ('Beyond The Pale') 64-bit
Writing library : libebml v1.3.6 + v1.4.9
Cover : Yes
Attachments : cover.jpg

Video
ID : 1
Format : AVC
Format/Info : Advanced Video Codec
Format profile : [email protected]
Format settings : CABAC / 8 Ref Frames
Format settings, CABAC : Yes
Format settings, ReFrames : 8 frames
Codec ID : V_MPEG4/ISO/AVC
Duration : 1 h 30 min
Bit rate : 2 850 kb/s
Width : 1 024 pixels
Height : 552 pixels
Display aspect ratio : 1.85:1
Frame rate mode : Constant
Frame rate : 23.976 (24000/1001) FPS
Color space : YUV
Chroma subsampling : 4:2:0
Bit depth : 8 bits
Scan type : Progressive
Bits/(Pixel*Frame) : 0.210
Stream size : 1.80 GiB (83%)
Title : The Great Outdoors
Writing library : core 125 r2208 d9d2288
Encoding settings : cabac=1 / ref=8 / deblock=1:-1:-1 / analyse=0x3:0x133 / me=umh / subme=9 / psy=1 / psy_rd=1.00:0.10 / mixed_ref=1 / me_range=32 / chroma_me=1 / trellis=2 / 8x8dct=1 / cqm=0 / deadzone=21,11 / fast_pskip=0 / chroma_qp_offset=-3 / threads=6 / lookahead_threads=1 / sliced_threads=0 / nr=0 / decimate=1 / interlaced=0 / bluray_compat=0 / constrained_intra=0 / bframes=3 / b_pyramid=2 / b_adapt=2 / b_bias=0 / direct=3 / weightb=1 / open_gop=0 / weightp=2 / keyint=250 / keyint_min=25 / scenecut=40 / intra_refresh=0 / rc_lookahead=60 / rc=2pass / mbtree=1 / bitrate=2850 / ratetol=1.0 / qcomp=0.60 / qpmin=0 / qpmax=69 / qpstep=4 / cplxblur=20.0 / qblur=0.5 / ip_ratio=1.40 / aq=1:1.00
Language : English
Default : Yes
Forced : No

Audio #1
ID : 2
Format : AC-3
Format/Info : Audio Coding 3
Codec ID : A_AC3
Duration : 1 h 30 min
Bit rate mode : Constant
Bit rate : 192 kb/s
Channel(s) : 2 channels
Channel positions : Front: L R
Sampling rate : 48.0 kHz
Frame rate : 31.250 FPS (1536 SPF)
Bit depth : 16 bits
Compression mode : Lossy
Stream size : 124 MiB (6%)
Title : [UA-MVO-CINE]
Language : Ukrainian
Service kind : Complete Main
Default : Yes
Forced : Yes

Audio #2
ID : 3
Format : AC-3
Format/Info : Audio Coding 3
Codec ID : A_AC3
Duration : 1 h 30 min
Bit rate mode : Constant
Bit rate : 192 kb/s
Channel(s) : 2 channels
Channel positions : Front: L R
Sampling rate : 48.0 kHz
Frame rate : 31.250 FPS (1536 SPF)
Bit depth : 16 bits
Compression mode : Lossy
Stream size : 124 MiB (6%)
Title : [UA-DVO-ICTV]
Language : Ukrainian
Service kind : Complete Main
Default : No
Forced : No

Audio #3
ID : 4
Format : AC-3
Format/Info : Audio Coding 3
Codec ID : A_AC3
Duration : 1 h 30 min
Bit rate mode : Constant
Bit rate : 192 kb/s
Channel(s) : 2 channels
Channel positions : Front: L R
Sampling rate : 48.0 kHz
Frame rate : 31.250 FPS (1536 SPF)
Bit depth : 16 bits
Compression mode : Lossy
Stream size : 124 MiB (6%)
Language : English
Service kind : Complete Main
Default : No
Forced : No





За запис звуку з каналу CINE+ дякуємо пану Sando7 Синхронізація drop_plz
За доріжку №2 подяка п. rooster
За допомогу в створенні реліза дякую пану drop_plz
Джерело: &
Особиста оцінка: 10+ Золота класика
Добре на природі / The Great Outdoors (1988) AVC 2xUkr/Eng Добре на природі / The Great Outdoors (1988) AVC 2xUkr/Eng


Срібний реліз (на рейтинг впливає 50% завантаженого)
 Трекер:    Зареєстрований   

Завантажити / скачати фільм українською



відео для новачків



 Зареєстрований:   2018-11-09 12:47
 Розмір:   2.16 GB 
 Оцінка фільму:   8.5/10 (Голосів: 6)
   
Інші релізи
rudder1992 
Свій


З нами з: 26.02.17
Востаннє: 19.04.19
Повідомлень: 90

2018-11-06 13:38  
Бачив цей фільм.
Хороший. Мені сподобався.
10 із 10
РОЗДАЙТЕ ЙОГО БУДЬ ЛАСКА!)

staf777 
Відео Гуртом - підтримка та поширення
Відео Гуртом - підтримка та поширення


З нами з: 16.11.16
Востаннє: 20.04.19
Повідомлень: 2272

2018-11-06 16:24  
rudder1992
Це лише анонс - роздача буде вечором ...
ось роздають https://toloka.to/tracker.php?nm=The+Great+Outdoors+%281988%29

rudder1992 
Свій


З нами з: 26.02.17
Востаннє: 19.04.19
Повідомлень: 90

2018-11-06 23:31  
Спасибі)
bot 
робот


З нами з: 30.09.07
Востаннє: 26.05.05
Повідомлень: 21220

2018-11-09 12:46  
Тему перенесено з Анонси релізів до форуму Фільми


staf777

Ваш часовий пояс: GMT + 2 Години

Нова тема   Відповісти