Зірконавти (Сезон 1) (2018) AVC

Нові коментарі

Нова тема   Відповісти
Останній раз роздавалося sergiyko.5 (2020-11-26)
Автор Повідомлення
sergiyko.5 
Забанено
Забанено


З нами з: 25.02.16
Востаннє: 29.10.20
Повідомлень: 3650

2018-11-05 23:16  
Зірконавти (Сезон 1) (2018) AVC

Зірконавти (Сезон 1) (2018) AVC

Жанр: комедія
Країна: Україна
Кінокомпанія: ТЕТ
Актори: Віктор Розовий, Олександр Станкевич, Сергій Бібілов, Ілля Дерменжи, Дар'я Кобякова, Христина Понунаєва, Рустем Емірсалієв та інші.

Сюжет:
"Зірконавти" – новий вибуховий комедійний серіал на ТЕТ. Нарешті в космос полетить команда українських космонавтів! Секретна лабораторія випадково здійснила неймовірне відкриття – наші науковці винайшли суперпаливо у вигляді звичайної пігулки.

Тепер, маючи у своєму розпорядженні майже необмежені енергоресурси, дослідники вирішують організувати Першу українську космічну місію. Часу обмаль, екіпаж обирають нашвидкоруч, а ціль місії й взагалі забувають визначити. Що з цього вийде?


Тривалість: 1 серія: 24:00 (цілком серій: 20)
Якість:

Відео: кодек: розмір кадру: 1024 х 576 бітрейт: 1100 кб/с
Аудіо: мова: українська переклад: оригінал кодек: 2.0 бітрейт: 128 кб/с
Перелік серій
01-20 серії
Про файл:
General
Unique ID : 24669869521741855475323065467685839153 (0x128F3E79A445B226713BB81B54882131)
Complete name : G:\Torrents2\FILMS\Зірконавти S01 \Зірконавти.S01E01..
Format :
Format version : Version 4
File size : 215 MiB
Duration : 24 min 2 s
Overall bit rate : 1 248 kb/s
Encoded date : UTC 2018-11-05 21:08:22
Writing application : v28.1.0 ('Morning Child') 64-bit
Writing library : libebml v1.3.6 + v1.4.9

Video
ID : 1
Format : AVC
Format/Info : Advanced Video Codec
Format profile : [email protected]
Format settings : CABAC / 6 Ref Frames
Format settings, CABAC : Yes
Format settings, ReFrames : 6 frames
Codec ID : V_MPEG4/ISO/AVC
Duration : 24 min 2 s
Bit rate : 1 118 kb/s
Width : 1 024 pixels
Height : 576 pixels
Display aspect ratio : 16:9
Frame rate mode : Constant
Frame rate : 25.000 FPS
Color space : YUV
Chroma subsampling : 4:2:0
Bit depth : 8 bits
Scan type : Progressive
Bits/(Pixel*Frame) : 0.076
Stream size : 192 MiB (90%)
Writing library : core 142 r2491 24e4fed
Encoding settings : cabac=1 / ref=6 / deblock=1:0:0 / analyse=0x3:0x113 / me=hex / subme=7 / psy=1 / psy_rd=1.00:0.00 / mixed_ref=1 / me_range=16 / chroma_me=1 / trellis=1 / 8x8dct=1 / cqm=0 / deadzone=21,11 / fast_pskip=1 / chroma_qp_offset=-2 / threads=12 / lookahead_threads=2 / sliced_threads=0 / nr=0 / decimate=1 / interlaced=0 / bluray_compat=0 / constrained_intra=0 / bframes=3 / b_pyramid=2 / b_adapt=1 / b_bias=0 / direct=1 / weightb=1 / open_gop=0 / weightp=2 / keyint=100 / keyint_min=10 / scenecut=40 / intra_refresh=0 / rc_lookahead=40 / rc=crf / mbtree=1 / crf=22.0 / qcomp=0.60 / qpmin=0 / qpmax=69 / qpstep=4 / vbv_maxrate=2000 / vbv_bufsize=4000 / crf_max=0.0 / nal_hrd=none / filler=0 / ip_ratio=1.41 / aq=1:1.00
Language : Ukrainian
Default : Yes
Forced : No

Audio
ID : 2
Format : LC
Format/Info : Advanced Audio Codec Low Complexity
Codec ID : A_AAC-2
Duration : 24 min 2 s
Bit rate : 128 kb/s
Channel(s) : 2 channels
Channel layout : L R
Sampling rate : 44.1 kHz
Frame rate : 43.066 FPS (1024 SPF)
Compression mode : Lossy
Delay relative to video : -80 ms
Stream size : 22.0 MiB (10%)
Language : Ukrainian
Default : Yes
Forced : No
Скріншоти:



Запис: sergiyko


Золотий реліз (завантажене не впливає на рейтинг)
 Трекер:    Зареєстрований   

Завантажити / скачати український серіал



відео для новачків



 Зареєстрований:   2018-12-13 11:17
 Розмір:   4.03 GB 
 Оцінка серіалу:   8.9/10 (Голосів: 18)
   
havryk 
VIP


З нами з: 29.06.10
Востаннє: 05.12.20
Повідомлень: 843

2018-11-06 07:38  
sergiyko.5 написано:

Якість:

Відео: кодек: розмір кадру: 1024 х 576 бітрейт: 1100 кб/с

AVC?

sergiyko.5 
Забанено
Забанено


З нами з: 25.02.16
Востаннє: 29.10.20
Повідомлень: 3650

2018-11-06 13:54  
havryk
У назві пишеться AVC, щоб користувач зразу отримав повну інформацію.
В описі зазначено більш детально:
Якість:
Відео: кодек: .
Так на мій погляд логічно і правильно.

qarty1 
VIP


З нами з: 01.11.09
Востаннє: 05.12.20
Повідомлень: 399

2018-11-06 14:05  
навіть Віктор Розовий це шоу не витягує, вистачило на пів серії
sergiyko.5 
Забанено
Забанено


З нами з: 25.02.16
Востаннє: 29.10.20
Повідомлень: 3650

2018-12-13 11:44  
Додав 17-20 серії .
Givi 
Модератор відео


З нами з: 25.02.08
Востаннє: 05.12.20
Повідомлень: 2959

2018-12-16 15:31  
Нормально, сміявся Happy
Ваш часовий пояс: GMT + 2 Години

Нова тема   Відповісти