Зірконавти (Сезон 1) (2018) 1080p

Нові коментарі

Нова тема   Відповісти
Останній раз роздавалося sergiyko.5 (2020-11-26)
Автор Повідомлення
sergiyko.5 
Забанено
Забанено


З нами з: 25.02.16
Востаннє: 29.10.20
Повідомлень: 3650

2018-11-05 23:13  
Зірконавти (Сезон 1) (2018) 1080p

Зірконавти (Сезон 1) (2018) 1080p

Жанр: комедія
Країна: Україна
Кінокомпанія: ТЕТ
Актори: Віктор Розовий, Олександр Станкевич, Сергій Бібілов, Ілля Дерменжи, Дар'я Кобякова, Христина Понунаєва, Рустем Емірсалієв та інші.

Сюжет:
"Зірконавти" – новий вибуховий комедійний серіал на ТЕТ. Нарешті в космос полетить команда українських космонавтів! Секретна лабораторія випадково здійснила неймовірне відкриття – наші науковці винайшли суперпаливо у вигляді звичайної пігулки.

Тепер, маючи у своєму розпорядженні майже необмежені енергоресурси, дослідники вирішують організувати Першу українську космічну місію. Часу обмаль, екіпаж обирають нашвидкоруч, а ціль місії й взагалі забувають визначити. Що з цього вийде?


Тривалість: 1 серія: 24:00 (цілком серій: 20)
Якість:

Відео: кодек: розмір кадру: 1920 х 1080 бітрейт: 3600 кб/с
Аудіо: мова: українська переклад: оригінал кодек: 2.0 бітрейт: 256 кб/с
Перелік серій
01-20 серії
Про файл:
General
Unique ID : 69602652038307176331158473650961429029 (0x345CFBB17BCA2B9E3C3964B6271CB225)
Complete name : G:\Torrents2\FILMS\Зірконавти S01 1080p \Зірконавти.S01E01.1080p..
Format :
Format version : Version 4
File size : 661 MiB
Duration : 24 min 2 s
Overall bit rate : 3 842 kb/s
Encoded date : UTC 2018-11-05 21:07:54
Writing application : v28.1.0 ('Morning Child') 64-bit
Writing library : libebml v1.3.6 + v1.4.9

Video
ID : 1
Format : AVC
Format/Info : Advanced Video Codec
Format profile : [email protected]
Format settings : CABAC / 6 Ref Frames
Format settings, CABAC : Yes
Format settings, ReFrames : 6 frames
Codec ID : V_MPEG4/ISO/AVC
Duration : 24 min 2 s
Bit rate : 3 584 kb/s
Width : 1 920 pixels
Height : 1 080 pixels
Display aspect ratio : 16:9
Frame rate mode : Constant
Frame rate : 25.000 FPS
Color space : YUV
Chroma subsampling : 4:2:0
Bit depth : 8 bits
Scan type : Progressive
Bits/(Pixel*Frame) : 0.069
Stream size : 616 MiB (93%)
Writing library : core 142 r2491 24e4fed
Encoding settings : cabac=1 / ref=6 / deblock=1:0:0 / analyse=0x3:0x113 / me=hex / subme=7 / psy=1 / psy_rd=1.00:0.00 / mixed_ref=1 / me_range=16 / chroma_me=1 / trellis=1 / 8x8dct=1 / cqm=0 / deadzone=21,11 / fast_pskip=1 / chroma_qp_offset=-2 / threads=12 / lookahead_threads=2 / sliced_threads=0 / nr=0 / decimate=1 / interlaced=0 / bluray_compat=0 / constrained_intra=0 / bframes=3 / b_pyramid=2 / b_adapt=1 / b_bias=0 / direct=1 / weightb=1 / open_gop=0 / weightp=2 / keyint=100 / keyint_min=10 / scenecut=40 / intra_refresh=0 / rc_lookahead=40 / rc=crf / mbtree=1 / crf=22.0 / qcomp=0.60 / qpmin=0 / qpmax=69 / qpstep=4 / vbv_maxrate=10000 / vbv_bufsize=20000 / crf_max=0.0 / nal_hrd=none / filler=0 / ip_ratio=1.41 / aq=1:1.00
Language : Ukrainian
Default : Yes
Forced : No

Audio
ID : 2
Format : LC
Format/Info : Advanced Audio Codec Low Complexity
Codec ID : A_AAC-2
Duration : 24 min 2 s
Bit rate : 256 kb/s
Channel(s) : 2 channels
Channel layout : L R
Sampling rate : 44.1 kHz
Frame rate : 43.066 FPS (1024 SPF)
Compression mode : Lossy
Delay relative to video : -80 ms
Stream size : 44.0 MiB (7%)
Language : Ukrainian
Default : Yes
Forced : No
Скріншоти:



Запис: sergiyko


Золотий реліз (завантажене не впливає на рейтинг)
 Трекер:    Зареєстрований   

Завантажити / скачати український серіал



відео для новачків



 Зареєстрований:   2018-12-13 11:43
 Розмір:   12.66 GB 
 Оцінка серіалу:   8.6/10 (Голосів: 16)
   
taksist 
Попереджень: 1
Попереджень: 1 


З нами з: 10.12.12
Востаннє: 14.10.20
Повідомлень: 552

2018-11-06 02:30  
продукцію українського виробництва вже варто почати маркувати не просто МОВА УКРАЇНСЬКА а МОВА ТОЧНО УКРАЇНСЬКА.
щоб знати що скачуєш - суржикомовне лайно чи справді український фільм.

sergiyko.5 
Забанено
Забанено


З нами з: 25.02.16
Востаннє: 29.10.20
Повідомлень: 3650

2018-11-25 23:39  
Додав 13-16 серії .
jaral 
Забанено
Забанено


З нами з: 18.10.07
Востаннє: 21.01.20
Повідомлень: 977

2018-11-30 09:52  
Kвартал95 завжди
taksist написано:
суржикомовне лайно
.
sergiyko.5 
Забанено
Забанено


З нами з: 25.02.16
Востаннє: 29.10.20
Повідомлень: 3650

2018-12-13 11:44  
Додав 17-20 серії.
Ваш часовий пояс: GMT + 2 Години

Нова тема   Відповісти