Принцеса Лілліфі / Prinzessin Lillifee / Princess Lillifee (2009)

Нові коментарі

Нова тема   Відповісти
Автор Повідомлення
sergiyko.5 
VIP


З нами з: 25.02.16
Востаннє: 05.12.19
Повідомлень: 2801

2018-11-05 15:28  
Принцеса Лілліфі / Prinzessin Lillifee / Princess Lillifee (2009)

Принцеса Лілліфі / Prinzessin Lillifee / Princess Lillifee (2009)

Жанр: сімейний, фентезі, пригодницький
Країна: Німеччина, Франція
Кінокомпанія: Caligari Film- und Fernsehproduktions GmbH, Millimages, Universum Film (UFA)
Режисер: Ансгар Нибур, Х'юберт Вейланд
Ролі озвучують: Маріза Зедльмайер, Сабіна Болманн, Стефан Гюнтер, Джулія Хааке, Гудо Хегель, Йохен Стрібек, Патрік Рош, Макс Фельдер

Сюжет:
У Рожевому королівстві живе чарівна принцеса Лілліфі. У неї є чарівна паличка, від одного помаху якої все навколо робиться рожевим: корова і молоко, поля і дерева. Разом зі своєю улюбленицею, свинкою Пупсі, вона літає по окрузі, залишаючи за собою хмари з рожевих метеликів і виблискуючі рожеві зірочки. Однак незабаром виявляється, що не всім в королівстві до душі така рожева життя. Жителі вирішують назавжди покинути чарівну країну. Лілліфі дуже засмучена: вона була впевнена, що все навколо були щасливі. Принцеса вирішує повернути життя королівства в колишнє русло ...




Тривалість: 01:09:34
Якість:

Відео: кодек: розмір кадру: 704 х 400 бітрейт: 1500 кб/с
Аудіо: мова: українська переклад: багатоголосий закадровий кодек: 2.0 бітрейт: 192 кб/с
Озвучення:
Про файл:
General
Complete name : G:\Torrents2\MULT\Princessa.Lilifi.2009..avi
Format : AVI
Format/Info : Audio Video Interleave
File size : 881 MiB
Duration : 1 h 9 min
Overall bit rate : 1 772 kb/s
Writing application : VirtualDubMod 1.5.10.3 | www.virtualdub-fr.org || (build 2550/release)
Writing library : VirtualDubMod build 2550/release

Video
ID : 0
Format : MPEG-4 Visual
Format profile : Advanced [email protected]
Format settings : BVOP1
Format settings, BVOP : 1
Format settings, QPel : No
Format settings, GMC : No warppoints
Format settings, Matrix : Default (MPEG)
Codec ID :
Codec ID/Hint :
Duration : 1 h 9 min
Bit rate : 1 570 kb/s
Width : 704 pixels
Height : 400 pixels
Display aspect ratio : 16:9
Frame rate : 25.000 FPS
Color space : YUV
Chroma subsampling : 4:2:0
Bit depth : 8 bits
Scan type : Progressive
Compression mode : Lossy
Bits/(Pixel*Frame) : 0.223
Stream size : 781 MiB (89%)
Writing library : 1.2.1 (UTC 2008-12-04)

Audio
ID : 1
Format : AC-3
Format/Info : Audio Coding 3
Commercial name : Dolby Digital
Codec ID : 2000
Duration : 1 h 9 min
Bit rate mode : Constant
Bit rate : 192 kb/s
Channel(s) : 2 channels
Channel layout : L R
Sampling rate : 48.0 kHz
Frame rate : 31.250 FPS (1536 SPF)
Bit depth : 16 bits
Compression mode : Lossy
Stream size : 95.5 MiB (11%)
Alignment : Split accross interleaves
Interleave, duration : 40 ms (1.00 video frame)
Interleave, preload duratio : 500 ms
Service kind : Complete Main
Скріншоти:



Запис/зведення: sergiyko


 Трекер:    Зареєстрований   

Завантажити / скачати мультфільм українською



відео для новачків



 Зареєстрований:   2018-11-05 15:28
 Розмір:   881 MB 
 Оцінка мультфільму:   8.5/10 (Голосів: 8)
   
Innaell 
Новенький


З нами з: 22.06.14
Востаннє: 17.09.19
Повідомлень: 5

2018-12-08 05:29  
Милий "рожевенький" мультик Happy
Сюжет трохи наївний, дорослому важко зрозуміти, чому мешканці країни змінили думку після пісеньок та обіцянок, а не після реальної допомоги.
Зате все гарно намальовано і багато чудової музики.

Ваш часовий пояс: GMT + 2 Години

Нова тема   Відповісти