Після Заходу Сонця / After the Sunset (2004) Remux 1080p Ukr/Eng | Sub Ukr

Нові коментарі

Нова тема   Відповісти
Автор Повідомлення
prodig 
Поважний учасник


З нами з: 06.02.09
Востаннє: 04.10.13
Повідомлень: 205

2009-12-24 01:02  
Після заходу сонця / After the Sunset (2004) Remux 1080p Ukr/Eng | Sub Ukr



Жанр: бойовик, детектив, комедія
Країна: США



Кіностудія / кінокомпанія: New Line Cinema
Режисер: Бретт Ретнер
Актори: Пірс Броснан, Сальма Хаєк, Вуді Харрельсон, Дон Чідл, Наомі Харріс, Кріс Пенн, Трой Гаріті, Мікелті Вільямсон, Ліза Торнхілл, Джефф Гарлін

Сюжет:
Зав'язавши з кримінальним минулим, Мак Брадетт (Пірс Броснан), професійний злодій і шахрай, тепер насолоджується життям на райському острівці десь на Карибах, у компанії своєї подруги-напарниці (Сальма Хайєк). Але їх безтурботному існуванню не судилося тривати довго - один зі старих знайомих Брадетта, ганялися за ним свого часу агент ФБР (Вудді Харельсон), звертається до нього з пропозицією провернути одну привабливу справу. І тепер перед кожним з учасників цієї афери стоїть мета - не бути обіграні своїми напарниками і вийти зі справи переможцем ...


Тривалість: 01:37:18
Якість: Remux
Відео:
кодек:
розмір кадру: 1920х1080
бітрейт: 15 Мб/с

Аудіо:

    1. DD 5.1, 448 Kб/с, українська
    [size=].[/size]
    2. 5.1, 1.510 Mб/с, українська

    3. -HD MA 5.1, ~ 4.073 Mб/с, англійська
    .

Переклад: багатоголосий закадровий

Субтитри (SRT): українська
Info
Код:
General
Unique ID                   : 178260093084521239250531823830507096198 (0x861BA52653B602DEBBD5B31B1C7E8886)
Complete name               : After the Sunset.1080p.Hurtom.
Format                      :
Format version              : Version 2
File size                   : 14.3 GiB
Duration                    : 1 h 37 min
Overall bit rate mode       : Variable
Overall bit rate            : 21.0 Mb/s
Encoded date                : UTC 2009-12-22 22:49:31
Writing application         : v2.9.8 ('C'est le bon') built on Aug 13 2009 12:49:06
Writing library             : libebml v0.7.7 + v0.8.1

Video
ID                          : 1
Format                      : AVC
Format/Info                 : Advanced Video Codec
Format profile              : [email protected]
Format settings             : CABAC / 4 Ref Frames
Format settings, CABAC      : Yes
Format settings, RefFrames  : 4 frames
Format settings, GOP        : M=3, N=18
Codec ID                    : V_MPEG4/ISO/AVC
Duration                    : 1 h 37 min
Bit rate mode               : Variable
Maximum bit rate            : 30.0 Mb/s
Width                       : 1 920 pixels
Height                      : 1 080 pixels
Display aspect ratio        : 16:9
Frame rate mode             : Constant
Frame rate                  : 23.976 (24000/1001) FPS
Standard                    : NTSC
Color space                 : YUV
Chroma subsampling          : 4:2:0
Bit depth                   : 8 bits
Scan type                   : Progressive
Default                     : Yes
Forced                      : No
Color range                 : Limited
Color primaries             : BT.709
Transfer characteristics    : BT.709
Matrix coefficients         : BT.709

Audio #1
ID                          : 2
Format                      : AC-3
Format/Info                 : Audio Coding 3
Format settings, Endianness : Big
Codec ID                    : A_AC3
Duration                    : 1 h 37 min
Bit rate mode               : Constant
Bit rate                    : 448 kb/s
Channel(s)                  : 6 channels
Channel positions           : Front: L C R, Side: L R, LFE
Sampling rate               : 48.0 kHz
Frame rate                  : 31.250 FPS (1536 SPF)
Bit depth                   : 16 bits
Compression mode            : Lossy
Stream size                 : 312 MiB (2%)
Title                       : Ukr
Language                    : Ukrainian
Service kind                : Complete Main
Default                     : No
Forced                      : No

Audio #2
ID                          : 3
Format                      :
Format/Info                 : Digital Theater Systems
Mode                        : 16
Format settings, Endianness : Big
Codec ID                    : A_DTS
Duration                    : 1 h 37 min
Bit rate mode               : Constant
Bit rate                    : 1 510 kb/s
Channel(s)                  : 6 channels
Channel positions           : Front: L C R, Side: L R, LFE
Sampling rate               : 48.0 kHz
Frame rate                  : 93.750 FPS (512 SPF)
Bit depth                   : 16 bits
Compression mode            : Lossy
Stream size                 : 1.03 GiB (7%)
Title                       : Ukr
Language                    : Ukrainian
Default                     : Yes
Forced                      : No

Audio #3
ID                          : 4
Format                      :
Format/Info                 : Digital Theater Systems
Format profile              : MA / Core
Mode                        : 16
Format settings, Endianness : Big
Codec ID                    : A_DTS
Duration                    : 1 h 37 min
Bit rate mode               : Variable / Constant
Bit rate                    : Unknown / 1 509 kb/s
Channel(s)                  : 6 channels
Channel positions           : Front: L C R, Side: L R, LFE
Sampling rate               : 48.0 kHz
Frame rate                  : 93.750 FPS (512 SPF)
Bit depth                   : 24 bits
Compression mode            : Lossless / Lossy
Title                       : -HD Eng
Language                    : English
Default                     : No
Forced                      : No

Text
ID                          : 5
Format                      : UTF-8
Codec ID                    : S_TEXT/UTF8
Codec ID/Info               : UTF-8 Plain Text
Title                       : Ukr
Language                    : Ukrainian
Default                     : No
Forced                      : No
Скріншоти:




Джерело:
.


Золотий реліз (завантажене не впливає на рейтинг)
 Трекер:    Зареєстрований   

Завантажити / скачати фільм українською



відео для новачків



 Зареєстрований:   2009-12-24 01:02
 Розмір:   14.3 GB 
 Оцінка фільму:   9.7/10 (Голосів: 12)
   
lufa 
Частий відвідувач


З нами з: 09.12.08
Востаннє: 09.04.19
Повідомлень: 37

2009-12-24 10:23  
IMDB: 6.2/10 (18,154 голосів)
prodig 
Поважний учасник


З нами з: 06.02.09
Востаннє: 04.10.13
Повідомлень: 205

2009-12-25 04:32  
переглянув фільм лиш як виклав свій пост
скажу що враження від перегляду все таки залишилось, оцінив би як добре+
це десь 8.5/10 тільки чого Лола варта! звісно імхо

okzdp 
Поважний учасник


З нами з: 27.05.09
Востаннє: 25.04.19
Повідомлень: 207

2012-02-07 20:11  
Станьте на роздачу плз
okzdp 
Поважний учасник


З нами з: 27.05.09
Востаннє: 25.04.19
Повідомлень: 207

2012-02-11 19:24  
Сподобався Happy
249 
Новенький


З нами з: 14.03.12
Востаннє: 03.04.19
Повідомлень: 17

2016-03-18 00:42  
будь ласка станьте на роздачу
geroyasfalta 
Свій


З нами з: 20.06.11
Востаннє: 25.04.19
Повідомлень: 79

2019-01-17 11:00  
Поверніться на роздачу будь-ласка! Дякую скачав! Тут до речі,як і всіх релізах на гуртом у фільмі немає 5 секундного відрізку з 1.05.35 до 1.05.42 де герой В.Харрельсона каже слово "НІ".
Ваш часовий пояс: GMT + 2 Години

Нова тема   Відповісти