Суперсімейка 2 / Incredibles 2 (2018) 720p-mini

Нові коментарі

Нова тема   Відповісти
Автор Повідомлення
Drool 
VIP


З нами з: 17.04.10
Востаннє: 14.12.18
Повідомлень: 1500

2018-11-05 11:13  
Суперсімейка 2 / Incredibles 2 (2018) 720p-mini

Жанр: бойовик, комедія, мультфільм, пригоди, сімейний, фантастика
Країна: США


Дітям рекомендується дивитися фільм з батьками
Рекомендується присутність батьків. Деякий матеріал, можливо, не підходить для дітей. Цей рейтинг показує, що оцінений фільм може містити деякі сцени, проглядання яких маленькими дітьми може не сподобатися їх батькам. Матеріал, який може бути присутнім у фільмі, повинен бути пояснений і розібраний з дітьми перш, ніж їм дозволять відвідати фільм. Явні сексуальні сцени і сцени вживання наркотиків відсутні; нагота, якщо присутня, то тільки дуже обмежено, жах і насильство не перевищують середнього рівня.
Кінокомпанія: Pixar Animation Studios,Walt Disney Pictures
Режисер: Бред Берд
Актори: Крейг Т. Нельсон, Холлі Хантер, Сара Вавелл, Хак Мілнер, Кетрін Кінер, Боб Оденкірк, Семюел Л. Джексон

Сюжет:
Після подій першої частини суперсімейка користується підвищеною увагою з боку журналістів. Несподівано виявилося, що чарівна Місіс Виняткова набагато краще виглядає на екрані телевізора, ніж її чоловік. Містеру виключно все частіше доводиться сидіти вдома і доглядати за дітьми, у кожного з яких є свої причини бути незадоволеним власними суперздатностями. Однак сімейним проблемам належить відступити на другий план, коли виявиться, що спокою Суперсімейки загрожує новий могутній ворог.


Тривалість: 01:57:50
Якість: 720p-mini
Відео:
кодек:
розмір кадру: 1280 х 536
бітрейт: 1642 кб/с

Аудіо:
мова: українська
переклад: професійний дубльований
кодек: 5.1
бітрейт: 384 кб/с
Info
Код:
General
Unique ID                                : 5222764746659611665237451884470145755 (0x3EDDE2ED01A4187B86C3F6FC6BB12DB)
Complete name                            : /mnt/disk/Video/Animations/Incredibles.2.2018.Ukr.Dub..720p-mini.UAGet.
Format                                   :
Format version                           : Version 4 / Version 2
File size                                : 1.67 GiB
Duration                                 : 1 h 57 min
Overall bit rate                         : 2 028 kb/s
Movie name                               : Суперсімейка 2 / Incredibles 2 (2018) 720p-mini -=UAGet=-
Encoded date                             : UTC 2018-11-06 15:41:35
Writing application                      : v8.2.0 ('World of Adventure') 64bit
Writing library                          : libebml v1.3.1 + v1.4.2
Cover                                    : Yes
Attachments                              : cover.jpg

Video
ID                                       : 1
Format                                   : AVC
Format/Info                              : Advanced Video Codec
Format profile                           : [email protected]
Format settings                          : CABAC / 12 Ref Frames
Format settings, CABAC                   : Yes
Format settings, RefFrames               : 12 frames
Codec ID                                 : V_MPEG4/ISO/AVC
Duration                                 : 1 h 57 min
Bit rate                                 : 1 642 kb/s
Width                                    : 1 280 pixels
Height                                   : 536 pixels
Display aspect ratio                     : 2.40:1
Frame rate mode                          : Constant
Frame rate                               : 23.976 (24000/1001) FPS
Color space                              : YUV
Chroma subsampling                       : 4:2:0
Bit depth                                : 8 bits
Scan type                                : Progressive
Bits/(Pixel*Frame)                       : 0.100
Stream size                              : 1.35 GiB (81%)
Title                                    : Суперсімейка 2 / Incredibles 2 (2018) 720p-mini -=UAGet=-
Writing library                          : core 155 r2901 7d0ff22
Encoding settings                        : cabac=1 / ref=12 / deblock=1:-2:-2 / analyse=0x3:0x133 / me=tesa / subme=11 / psy=1 / psy_rd=0.40:0.00 / mixed_ref=1 / me_range=64 / chroma_me=1 / trellis=2 / 8x8dct=1 / cqm=0 / deadzone=21,11 / fast_pskip=0 / chroma_qp_offset=-2 / threads=90 / lookahead_threads=4 / sliced_threads=0 / nr=0 / decimate=1 / interlaced=0 / bluray_compat=0 / constrained_intra=0 / bframes=16 / b_pyramid=2 / b_adapt=2 / b_bias=0 / direct=3 / weightb=1 / open_gop=0 / weightp=2 / keyint=240 / keyint_min=24 / scenecut=40 / intra_refresh=0 / rc_lookahead=60 / rc=2pass / mbtree=1 / bitrate=1642 / ratetol=1.0 / qcomp=0.60 / qpmin=0 / qpmax=69 / qpstep=4 / cplxblur=20.0 / qblur=0.5 / vbv_maxrate=62500 / vbv_bufsize=78125 / nal_hrd=none / filler=0 / ip_ratio=1.40 / aq=1:0.60
Default                                  : Yes
Forced                                   : Yes
Color range                              : Limited
Color primaries                          : BT.709
Transfer characteristics                 : BT.709
Matrix coefficients                      : BT.709

Audio
ID                                       : 2
Format                                   :
Format/Info                              : Advanced Audio Codec
Format profile                           : LC
Codec ID                                 : A_AAC-2
Duration                                 : 1 h 57 min
Bit rate                                 : 384 kb/s
Channel(s)                               : 6 channels
Channel positions                        : Front: L C R, Side: L R, LFE
Sampling rate                            : 48.0 kHz
Frame rate                               : 46.875 FPS (1024 SPF)
Compression mode                         : Lossy
Stream size                              : 323 MiB (19%)
Title                                    : 5.1 384 кб/с
Language                                 : Ukrainian
Default                                  : Yes
Forced                                   : Yes

Menu
00:00:00.000                             : :00:00:00.000
00:03:23.537                             : :00:03:22.327
00:08:53.867                             : :00:08:53.616
00:09:37.243                             : :00:09:36.784
00:13:39.152                             : :00:13:38.276
00:15:45.945                             : :00:15:44.735
00:21:21.280                             : :00:21:19.737
00:23:29.742                             : :00:23:28.282
00:27:09.962                             : :00:27:08.794
00:29:00.072                             : :00:28:59.571
00:35:12.110                             : :00:35:10.900
00:39:09.013                             : :00:39:07.845
00:42:44.228                             : :00:42:43.894
00:43:42.620                             : :00:43:42.411
00:47:36.187                             : :00:47:35.352
00:48:54.598                             : :00:48:53.889
00:54:16.587                             : :00:54:15.585
00:56:16.707                             : :00:56:16.039
01:01:00.323                             : :01:00:58.696
01:02:02.052                             : :01:02:01.884
01:06:55.678                             : :01:06:55.511
01:09:19.155                             : :01:09:18.237
01:11:29.285                             : :01:11:28.200
01:12:37.687                             : :01:12:37.686
01:14:39.475                             : :01:14:39.266
01:18:01.343                             : :01:18:00.968
01:20:33.162                             : :01:20:32.536
01:25:03.432                             : :01:25:01.930
01:28:00.275                             : :01:27:59.440
01:31:55.510                             : :01:31:53.925
01:33:27.268                             : :01:33:26.434
01:36:25.780                             : :01:36:25.237
01:37:45.860                             : :01:37:45.192
01:43:57.898                             : :01:43:56.897
01:45:36.330                             : :01:45:35.912
01:47:31.445                             : :01:47:30.902
Скріншоти
Реліз від:
Особиста оцінка: 8 - мені сподобалося


 Трекер:    Зареєстрований   

Завантажити / скачати мультфільм українською



відео для новачків



 Зареєстрований:   2018-11-06 17:53
 Розмір:   1.67 GB 
 Оцінка мультфільму:   10/10 (Голосів: 11)
   
Інші релізи
   Суперсімейка 2 / Incredibles 2 (2018) 1080p H.265 Ukr/Eng | Sub Eng -Star-Lord-  22 / 0   6.52 GB   2018-11-07 11:38 
   Суперсімейка 2 / Incredibles 2 (2018) 1080p Ukr/Eng | Sub Eng igor911  55 / 0   9.85 GB   2018-11-04 12:23 
   Суперсімейка 2 / Incredibles 2 (2018) AVC Ukr/Eng | Sub Eng uafilm.tv  110 / 0   2.27 GB   2018-11-03 21:04 
   Суперсімейка 2 / Incredibles 2 (2018) 720p Ukr/Eng | Sub Eng 11FrYkT  46 / 1   6.26 GB   2018-11-03 20:57 
   Суперсімейка 2 / Incredibles 2 (2018) Remux 1080p Ukr/Eng | Sub Eng 11FrYkT  22 / 0   25.78 GB   2018-11-03 19:24 
   Суперсімейка 2 / Incredibles 2 (2018) 11FrYkT  67 / 4   1.46 GB   2018-11-03 19:23 
bot 
робот


З нами з: 30.09.07
Востаннє: 26.05.05
Повідомлень: 20341

2018-11-05 11:14  
Тему перенесено з Мультфільми в HD до форуму Анонси релізів


Drool

bot 
робот


З нами з: 30.09.07
Востаннє: 26.05.05
Повідомлень: 20341

2018-11-06 17:53  
Тему перенесено з Анонси релізів до форуму Мультфільми в HD


Drool

Ваш часовий пояс: GMT + 2 Години

Нова тема   Відповісти