Ігри кілерів / Assassination Games (2011) 720p Ukr/Eng | Sub Eng

Нові коментарі

Нова тема   Відповісти
Автор Повідомлення
staf777 
Відео Гуртом - підтримка та поширення
Відео Гуртом - підтримка та поширення


З нами з: 16.11.16
Востаннє: 27.09.20
Повідомлень: 4053

2018-11-05 11:42  
Ігри кілерів / Assassination Games (2011) 720p Ukr/Eng | Sub Eng

Ігри кілерів / Assassination Games (2011) 720p Ukr/Eng | Sub Eng


Жанр: екшн, трилер
Країна: США, Румунія



Кінокомпанія: Mediapro Studios, Motion Picture Corporation of America (MPCA), Rodin Entertainment
Режисер: Ерні Барбараш
Актори: Жан-Клод Ван Дамм, Скот Едкінс, Валентін Теодосію, Айван Кей, Елін Пенк, Кевін Чепмен, Сербан Целеа, Майкл Хіггс, Крістофер Ван Варенберг, Марія Каран

Сюжет:
Роланд Флінт і Вінсент Брейзіл - страшенні найманці, майстри східних єдиноборств і гуру військового мистецтва. Вінсент спеціалізується на холодній зброї, в той час, як Роланд є першокласним стрільцем. Вони не знайомі один одному, але незабаром їм належить створити непростий альянс і колоритний тандем.
В один прекрасний день двом професіоналам доручили завдання - за всяку ціну знищити наркокартель, який заполонив всю округу «товаром», а разом з тим - прибрати всесильного боса, що покривається управлінням по боротьбі з наркотиками. Однак, за простою, з першого погляду, місією криється зрада, підстава і темні витівки впливових осіб і ділків злочинного світу, що оголосили полювання на самих найманців. Тепер крутим хлопцям доведеться на власній шкурі відчути, що значить бути жертвою і постійно озиратися назад. Війна починається і кровопролитної битви не уникнути ...


Тривалість: 01:39:52
Якість: 720p
Відео:
кодек:
розмір кадру: 1280x720
бітрейт: 3670 кб/с

Аудіо # 1:
мова: українська
переклад: багатоголосий закадровий
кодек: 2.0
бітрейт: 192 кб/с

Аудіо # 2:
мова: англійська
переклад: оригінал
кодек: 5.1
бітрейт: 1509 кб/с

Субтитри:
мова: англійська
тип: програмні (м'які)
формат: *.srt
Info
General
Unique ID : 105414193808859069742277870278061419506 (0x4F4E09059E839F71E663CB8599756BF2)
Complete name : G:\ Assassination Games (2011) 720p [UA][ENG][Hurtom].
Format :
Format version : Version 4 / Version 2
File size : 3.75 GiB
Duration : 1 h 39 min
Overall bit rate : 5 374 kb/s
Movie name : Assassination Games (2011) 720p [UA][ENG][Hurtom]
Encoded date : UTC 2018-11-05 19:25:02
Writing application : v24.0.0 ('Beyond The Pale') 64-bit
Writing library : libebml v1.3.6 + v1.4.9
Cover : Yes
Attachments : cover.jpg

Video
ID : 1
Format : AVC
Format/Info : Advanced Video Codec
Format profile : [email protected]
Format settings : CABAC / 9 Ref Frames
Format settings, CABAC : Yes
Format settings, ReFrames : 9 frames
Codec ID : V_MPEG4/ISO/AVC
Duration : 1 h 39 min
Bit rate : 3 670 kb/s
Width : 1 280 pixels
Height : 720 pixels
Display aspect ratio : 16:9
Frame rate mode : Constant
Frame rate : 23.976 (24000/1001) FPS
Color space : YUV
Chroma subsampling : 4:2:0
Bit depth : 8 bits
Scan type : Progressive
Bits/(Pixel*Frame) : 0.166
Stream size : 2.56 GiB (68%)
Writing library : core 142 r2389+41 02cb608 tMod [[email protected]:2:0 X86_64]
Encoding settings : cabac=1 / ref=9 / deblock=1:-3:-3 / analyse=0x3:0x113 / me=umh / subme=11 / psy=1 / fade_compensate=0.00 / psy_rd=1.00:0.15 / mixed_ref=1 / me_range=32 / chroma_me=1 / trellis=2 / 8x8dct=1 / cqm=0 / deadzone=21,11 / fast_pskip=0 / chroma_qp_offset=-3 / threads=6 / lookahead_threads=1 / sliced_threads=0 / nr=0 / decimate=0 / interlaced=0 / bluray_compat=0 / constrained_intra=0 / fgo=0 / bframes=10 / b_pyramid=2 / b_adapt=2 / b_bias=0 / direct=3 / weightb=1 / open_gop=0 / weightp=2 / keyint=240 / keyint_min=23 / scenecut=40 / intra_refresh=0 / rc=2pass / mbtree=0 / bitrate=3670 / ratetol=1.0 / qcomp=0.60 / qpmin=0:0:0 / qpmax=69:69:69 / qpstep=4 / cplxblur=20.0 / qblur=0.5 / ip_ratio=1.40 / pb_ratio=1.30 / aq=1:0.80 / aq-sensitivity=10.00 / aq-factor=1.00:1.00:1.00 / aq2=0 / aq3=0
Default : Yes
Forced : No

Audio #1
ID : 2
Format : AC-3
Format/Info : Audio Coding 3
Codec ID : A_AC3
Duration : 1 h 39 min
Bit rate mode : Constant
Bit rate : 192 kb/s
Channel(s) : 2 channels
Channel positions : Front: L R
Sampling rate : 48.0 kHz
Frame rate : 31.250 FPS (1536 SPF)
Bit depth : 16 bits
Compression mode : Lossy
Stream size : 137 MiB (4%)
Title : [UA-MVO]
Language : Ukrainian
Service kind : Complete Main
Default : Yes
Forced : Yes

Audio #2
ID : 3
Format :
Format/Info : Digital Theater Systems
Codec ID : A_DTS
Duration : 1 h 39 min
Bit rate mode : Constant
Bit rate : 1 509 kb/s
Channel(s) : 6 channels
Channel positions : Front: L C R, Side: L R, LFE
Sampling rate : 48.0 kHz
Frame rate : 93.750 FPS (512 SPF)
Bit depth : 24 bits
Compression mode : Lossy
Stream size : 1.05 GiB (28%)
Language : English
Default : No
Forced : No

Text
ID : 4
Format : UTF-8
Codec ID : S_TEXT/UTF8
Codec ID/Info : UTF-8 Plain Text
Duration : 1 h 34 min
Bit rate : 33 b/s
Count of elements : 749
Stream size : 23.0 KiB (0%)
Language : English
Default : No
Forced : No

Menu
00:00:00.000 : en:Chapter 01
00:07:57.977 : en:Chapter 02
00:11:13.713 : en:Chapter 03
00:17:42.519 : en:Chapter 04
00:21:57.648 : en:Chapter 05
00:30:29.953 : en:Chapter 06
00:37:04.597 : en:Chapter 07
00:41:24.732 : en:Chapter 08
00:46:33.457 : en:Chapter 09
00:51:43.850 : en:Chapter 10
00:58:31.591 : en:Chapter 11
01:07:04.770 : en:Chapter 12
01:11:32.537 : en:Chapter 13
01:17:46.119 : en:Chapter 14
01:23:49.607 : en:Chapter 15
01:32:09.106 : en:Chapter 16
Скріншоти







Запис звуку з ТБ Bohdan237 Синхронізація drop_plz
Джерело: &
Особиста оцінка: 0 - не дивився
Ігри кілерів / Assassination Games (2011) 720p Ukr/Eng | Sub Eng Ігри кілерів / Assassination Games (2011) 720p Ukr/Eng | Sub Eng


 Трекер:    Зареєстрований   

Завантажити / скачати фільм українською



відео для новачків



 Зареєстрований:   2018-11-05 22:57
 Розмір:   3.75 GB 
 Оцінка фільму:   8.4/10 (Голосів: 9)
   
bot 
робот


З нами з: 30.09.07
Востаннє: 26.05.05
Повідомлень: 25633

2018-11-05 19:32  
Тему перенесено з Фільми в HD до форуму Анонси релізів


staf777

bot 
робот


З нами з: 30.09.07
Востаннє: 26.05.05
Повідомлень: 25633

2018-11-05 22:57  
Тему перенесено з Анонси релізів до форуму Фільми в HD


staf777

Ваш часовий пояс: GMT + 2 Години

Нова тема   Відповісти