Будиночок на щастя (1-2 сезон: 1-42 серій із 48) (2018) 1080p

Нові коментарі

Нова тема   Відповісти
Автор Повідомлення
V.i.R.u.S 
Свій


З нами з: 19.11.10
Востаннє: 14.11.19
Повідомлень: 107

2018-11-05 00:59  
Будиночок на щастя (2018) 1080p


Жанр: Комедія, ситком
Країна: Україна
Кінокомпанія: "Новий канал"
Режисер: Сергій Атрощенко
Актори: Галина Безрук, Констянтин Войтенко, Назар Задніпровський, Віталіна Біблів

Сюжет:
Герої серіалу Будиночок на щастя - молоді кияни. Банкір Макс вирішує, що його все дістало і переїжджає в село Сеньківка розводити страусів. Молода модниця Маша (Галина Безрук) погоджується на вмовляння коханого чоловіка Макса (Костянтин Войтенко) почати власний бізнес і відкрити страусину ферму в селі. З гучної, упорядкованій столиці молода пара переїжджає в старий бабусин будинок в смт Сеньківка, де пройшло дитинство Макса. Чи зможуть вони вижити в селі? Колориту веселим пригодам молодої пари додають хитрі і цікаві сусіди - Василь (Назар Задніпровський) і Люба (Віталіна Біблів). навчені життєвим досвідом, вони сприймають новоприбулих киян, як щось дивне, але моторошно цікаве. Емоційний діалог села і міста породжує масу кумедних непорозумінь і смішних подій.

Тривалість: 1 серія: 00:26:00 (цілком серій: 42 серій з 48)
Якість:

Відео: кодек: розмір кадру: 1920x1080 бітрейт: 5000 кб/с
Аудіо: мова: українська, російська переклад: оригінал кодек: 2.0 бітрейт: 128 кб/с

Info:
General
Complete name : D:\Будиночок на щастя\Сезон 1 - Серія 01.mp4
Format : MPEG-4
Format profile : Base Media
Codec ID : isom (isom/iso2/avc1/mp41)
File size : 1 023 MiB
Duration : 27 min 30 s
Overall bit rate : 5 201 kb/s
Writing application : Lavf55.8.102

Video
ID : 1
Format : AVC
Format/Info : Advanced Video Codec
Format profile : [email protected]
Format settings : CABAC / 4 Ref Frames
Format settings, CABAC : Yes
Format settings, ReFrames : 4 frames
Codec ID : avc1
Codec ID/Info : Advanced Video Coding
Duration : 27 min 30 s
Bit rate : 5 000 kb/s
Width : 1 920 pixels
Height : 1 080 pixels
Display aspect ratio : 16:9
Frame rate mode : Constant
Frame rate : 25.000 FPS
Color space : YUV
Chroma subsampling : 4:2:0
Bit depth : 8 bits
Scan type : Progressive
Bits/(Pixel*Frame) : 0.096
Stream size : 997 MiB (97%)
Writing library : core 130 r2 b3065e6
Encoding settings : cabac=1 / ref=3 / deblock=1:0:0 / analyse=0x3:0x113 / me=hex / subme=5 / psy=1 / psy_rd=1.00:0.00 / mixed_ref=0 / me_range=16 / chroma_me=1 / trellis=1 / 8x8dct=1 / cqm=0 / deadzone=21,11 / fast_pskip=1 / chroma_qp_offset=0 / threads=36 / lookahead_threads=8 / sliced_threads=0 / nr=0 / decimate=1 / interlaced=0 / bluray_compat=0 / constrained_intra=0 / bframes=2 / b_pyramid=2 / b_adapt=1 / b_bias=0 / direct=1 / weightb=1 / open_gop=0 / weightp=1 / keyint=12 / keyint_min=1 / scenecut=40 / intra_refresh=0 / rc_lookahead=12 / rc=abr / mbtree=1 / bitrate=5000 / ratetol=1.0 / qcomp=0.60 / qpmin=10 / qpmax=51 / qpstep=4 / ip_ratio=1.41 / aq=1:1.00

Audio
ID : 2
Format :
Format/Info : Advanced Audio Codec
Format profile : LC
Codec ID : mp4a-40-2
Duration : 27 min 30 s
Duration_LastFrame : -9 ms
Bit rate mode : Constant
Bit rate : 128 kb/s
Channel(s) : 2 channels
Channel positions : Front: L R
Sampling rate : 44.1 kHz
Frame rate : 43.066 FPS (1024 SPF)
Compression mode : Lossy
Stream size : 25.2 MiB (2%)
Default : Yes
Alternate group : 1
Скріншоти:



Золотий реліз (завантажене не впливає на рейтинг)
 Трекер:    Зареєстрований   

Завантажити / скачати український серіал



відео для новачків



 Зареєстрований:   2019-11-13 14:19
 Розмір:   44.08 GB 
 Оцінка серіалу:   10/10 (Голосів: 2)
   
ssTAss 
Модератор музики


З нами з: 05.07.08
Востаннє: 15.11.19
Повідомлень: 15570

2018-11-05 01:33  
V.i.R.u.S написано:
Будиночок на щастя (1 сезон: 1-16 серии из 16) (2018) (1080p)

V.i.R.u.S написано:
Жанр: Комедия, ситком

V.i.R.u.S написано:
Кінокомпанія: "Новый канал"

V.i.R.u.S 
Свій


З нами з: 19.11.10
Востаннє: 14.11.19
Повідомлень: 107

2018-11-05 11:52  
ssTAss
Виправив.

На роздачу повернусь ввечері!

kostyatest 
Частий відвідувач


З нами з: 01.02.18
Востаннє: 15.11.19
Повідомлень: 49

2018-11-05 14:39  
Нема перекладу. Московське ...
11FrYkT 
Модератор відео


З нами з: 20.02.11
Востаннє: 15.11.19
Повідомлень: 6322

2018-11-08 11:41  
V.i.R.u.S написано:

точно?
Скріншоти повинні бути у форматі ПНГ, також додайте звіт Медіаінфо
kostyatest написано:
Нема перекладу. Московське ...

уточніть яка мова

Markab 
Новенький


З нами з: 01.12.10
Востаннє: 14.09.19
Повідомлень: 4

2018-11-19 08:32  
Будь-ласка, виправіть в описі (сюжет) русизм "забавний" на українське слово "кумедний".
Givi 
Модератор відео


З нами з: 25.02.08
Востаннє: 14.11.19
Повідомлень: 2944

2018-11-25 11:09  
Смішненький серіал, місцями аж до сліз Happy Гарно з дружиною вечори проводимо проглядаючи його.
Дякую за реліз!

1985ad 
Новенький


З нами з: 27.04.17
Востаннє: 14.11.19
Повідомлень: 11

2019-10-31 19:58  
2-ий сезон не планується?
V.i.R.u.S 
Свій


З нами з: 19.11.10
Востаннє: 14.11.19
Повідомлень: 107

2019-11-02 13:24  
1985ad
Трішки пізніше викладу та заміню 1 сезон на кращу якість)

V.i.R.u.S 
Свій


З нами з: 19.11.10
Востаннє: 14.11.19
Повідомлень: 107

2019-11-02 16:27  
Додав Другий сезон та замінив Перший з кращим бітрейтом.
V.i.R.u.S 
Свій


З нами з: 19.11.10
Востаннє: 14.11.19
Повідомлень: 107

2019-11-08 21:04  
Додав серії з 17-24, другого сезону. Приємного перегляду)
1985ad 
Новенький


З нами з: 27.04.17
Востаннє: 14.11.19
Повідомлень: 11

2019-11-09 14:10  
V.i.R.u.S
Дякую!
Так це вже всі серії, чи ще будуть? Я по телевізору не дивлюся, думав, що "32 з 32" то значить, що вже фінал, а воно он як.

V.i.R.u.S 
Свій


З нами з: 19.11.10
Востаннє: 14.11.19
Повідомлень: 107

2019-11-10 13:45  
1985ad
Я теж так думав. Точної інформації скільки буде серій не знайшов)
Якщо будуть з*являтись нові то буду добавляти!

Dark Invader 
Модератор відео


З нами з: 06.01.11
Востаннє: 15.11.19
Повідомлень: 2782

2019-11-10 15:20  
V.i.R.u.S написано:
Точної інформації скільки буде серій не знайшов

Ще буде 8 серій.

1985ad 
Новенький


З нами з: 27.04.17
Востаннє: 14.11.19
Повідомлень: 11

2019-11-11 12:13  
V.i.R.u.S
Тоді, думаю, що є сенс не писати "із 40", а замінити "40" на "???" чи "...", наприклад. Хоча, якщо Dark Invader впевнений, то можна відразу "48" писати.

Dark Invader
Дякую за інформацію.

V.i.R.u.S 
Свій


З нами з: 19.11.10
Востаннє: 14.11.19
Повідомлень: 107

2019-11-13 14:21  
Додав 25-26 серію.
Ваш часовий пояс: GMT + 2 Години

Нова тема   Відповісти