Том і Джеррі: загублений дракон / Tom and Jerry: The Lost Dragon (2014) 720p Ukr/Eng | Sub Eng

Нові коментарі

Нова тема   Відповісти
Автор Повідомлення
sergiyko.5 
VIP


З нами з: 25.02.16
Востаннє: 26.02.20
Повідомлень: 2954

2018-11-04 23:18  
Том і Джеррі: загублений дракон / Tom and Jerry: The Lost Dragon (2014) 720p Ukr/Eng | Sub Eng


Том і Джеррі: загублений дракон / Tom and Jerry: The Lost Dragon (2014) 720p Ukr/Eng | Sub Eng

Жанр: пригоди, комедія
Країна: США
Режисер: Спайк Брандт(Spike Brandt), Тоні Червоне(Tony Cervone)
Ролі озвучували: Келлі Стейблз, Віккі Льюіс, Джим Каммінгс, Лорейн Ньюмен, Вуейн Найт

Опис: Улюблена парочка - кіт і миша повернулись в цій чарівній казці! А разом з ними - і пісні, веселощі і магія. Пригоди наших героїв починаються з того, що вони знаходять дивне яйце, яке було вкрадено у величезного вогнедишного дракона! Незабаром з яйця вилуплюється малюк Паффі і вирішує, що Том - це його мама. Справжня мама-дракониха хоче повернути свого дракончіка, але не вона одна - за малюком полює відьма Дрізельда!

За допомогою чарівних союзників і звірів Тому і Джеррі належить зупинити відьму і повернути дитинча його мамі. Вас чекає магія, битви і, звичайно ж, море веселощів! Чи зможуть друзі допомогти героям цієї казки, чи буде у неї щасливий фінал? Рушайте в захоплюючу подорож всією родиною і самі дізнаєтеся!




Тривалість: 56:40
Якість:

Відео: кодек: розмір кадру: 1280 x 720 бітрейт: 2990 кб/с
Аудіо #1: мова: українська переклад: багатоголосий закадровий кодек: 2.0 бітрейт: 192 кб/с
Озвучення:
Аудіо #2: мова: англійська переклад: оригінал кодек: 5.1 бітрейт: 640 кб/с
Субтитри: мова: англійська тип: програмні (м’які) формат: *.srt
Інформація про файл:
General
Unique ID : 207352884920598584277139697769150929985 (0x9BFEB687FA7A3132545250B6545BDC41)
Complete name : G:\Torrents2\MULT\Tom and Jerry The Lost Dragon.2014.720p..
Format :
Format version : Version 4
File size : 1.51 GiB
Duration : 56 min 41 s
Overall bit rate : 3 815 kb/s
Movie name : Tom and Jerry The Lost Dragon 2014 720p by sergiyko
Encoded date : UTC 2018-11-04 21:06:03
Writing application : v28.1.0 ('Morning Child') 64-bit
Writing library : libebml v1.3.6 + v1.4.9
Cover : Yes
Attachments : cover.jpg

Video
ID : 1
Format : AVC
Format/Info : Advanced Video Codec
Format profile : [email protected]
Format settings : CABAC / 7 Ref Frames
Format settings, CABAC : Yes
Format settings, ReFrames : 7 frames
Codec ID : V_MPEG4/ISO/AVC
Duration : 56 min 40 s
Bit rate : 2 982 kb/s
Width : 1 280 pixels
Height : 720 pixels
Display aspect ratio : 16:9
Frame rate mode : Constant
Frame rate : 23.976 (24000/1001) FPS
Color space : YUV
Chroma subsampling : 4:2:0
Bit depth : 8 bits
Scan type : Progressive
Bits/(Pixel*Frame) : 0.135
Stream size : 1.18 GiB (78%)
Title : Tom and Jerry The Lost Dragon 2014
Writing library : core 155 r2901 7d0ff22
Encoding settings : cabac=1 / ref=8 / deblock=1:-2:-2 / analyse=0x3:0x133 / me=umh / subme=10 / psy=1 / psy_rd=0.40:0.00 / mixed_ref=1 / me_range=24 / chroma_me=1 / trellis=2 / 8x8dct=1 / cqm=0 / deadzone=21,11 / fast_pskip=1 / chroma_qp_offset=-2 / threads=22 / lookahead_threads=5 / sliced_threads=0 / nr=0 / decimate=1 / interlaced=0 / bluray_compat=0 / constrained_intra=0 / bframes=12 / b_pyramid=1 / b_adapt=2 / b_bias=0 / direct=3 / weightb=1 / open_gop=0 / weightp=2 / keyint=240 / keyint_min=24 / scenecut=40 / intra_refresh=0 / rc_lookahead=60 / rc=crf / mbtree=1 / crf=17.0 / qcomp=0.60 / qpmin=0 / qpmax=69 / qpstep=4 / vbv_maxrate=62500 / vbv_bufsize=78125 / crf_max=0.0 / nal_hrd=none / filler=0 / ip_ratio=1.40 / aq=1:0.70
Language : English
Default : Yes
Forced : No
Color range : Limited
Color primaries : BT.709
Transfer characteristics : BT.709
Matrix coefficients : BT.709

Audio #1
ID : 2
Format : AC-3
Format/Info : Audio Coding 3
Commercial name : Dolby Digital
Codec ID : A_AC3
Duration : 56 min 40 s
Bit rate mode : Constant
Bit rate : 192 kb/s
Channel(s) : 2 channels
Channel layout : L R
Sampling rate : 48.0 kHz
Frame rate : 31.250 FPS (1536 SPF)
Bit depth : 16 bits
Compression mode : Lossy
Delay relative to video : -5 ms
Stream size : 77.8 MiB (5%)
Title : MOV | Новий Канал
Language : Ukrainian
Service kind : Complete Main
Default : Yes
Forced : Yes

Audio #2
ID : 3
Format : AC-3
Format/Info : Audio Coding 3
Commercial name : Dolby Digital
Codec ID : A_AC3
Duration : 56 min 41 s
Bit rate mode : Constant
Bit rate : 640 kb/s
Channel(s) : 6 channels
Channel layout : L R C LFE Ls Rs
Sampling rate : 48.0 kHz
Frame rate : 31.250 FPS (1536 SPF)
Bit depth : 16 bits
Compression mode : Lossy
Stream size : 260 MiB (17%)
Title : Original
Language : English
Service kind : Complete Main
Default : No
Forced : No

Text
ID : 4
Format : UTF-8
Codec ID : S_TEXT/UTF8
Codec ID/Info : UTF-8 Plain Text
Duration : 56 min 25 s
Bit rate : 38 b/s
Count of elements : 609
Stream size : 16.1 KiB (0%)
Title : Eng Sub - SDH
Language : English
Default : No
Forced : No

Menu
00:00:00.000 : en:00:00:00.000
00:10:44.269 : en:00:10:44.269
00:18:27.023 : en:00:18:27.023
00:27:48.667 : en:00:27:48.667
00:38:25.053 : en:00:38:25.053
00:49:43.522 : en:00:49:43.522
00:53:39.049 : en:00:53:39.049
Скріншоти:



Запис/зведення/ріп: sergiyko


 Трекер:    Зареєстрований   

Завантажити / скачати мультфільм українською



відео для новачків



 Зареєстрований:   2018-11-04 23:18
 Розмір:   1.51 GB 
 Оцінка мультфільму:   10/10 (Голосів: 9)
   
Electroz 
Відео Гуртом - підтримка та поширення
Відео Гуртом - підтримка та поширення


З нами з: 18.09.14
Востаннє: 26.02.20
Повідомлень: 3774

2018-11-04 23:24  
sergiyko.5 написано:
переклад: професійний дубльований

багатоголоска

dimon-2018 
VIP


З нами з: 06.05.18
Востаннє: 26.02.20
Повідомлень: 472

2019-10-18 15:20  
sergiyko.5
український постер

Ваш часовий пояс: GMT + 2 Години

Нова тема   Відповісти