Перезапуск Сакуради / Sagrada Reset (2017) 1080p Jpn | Sub Ukr

Нові коментарі

Нова тема   Відповісти
Останній раз роздавалося Ivan_007 (2019-08-03)
Автор Повідомлення
Amanogawa 
VIP


З нами з: 27.09.17
Востаннє: 30.03.20
Повідомлень: 644

2018-11-04 00:28  
Перезапуск Сакуради / Sagrada Reset (серія 1 з 24) (2017) 1080p Jpn | Sub Ukr

Перезапуск Сакуради / Sagrada Reset (2017) 1080p Jpn | Sub Ukr


Жанр: школа, романтика, суперсили
Країна: Японія



Аніместудія: David Production
Режисер: Кавацура Шінья
Сейю: Ішікава Кайто, Ханазава Кана, Юкі Аой та ін.

Сюжет:
Майже у половини всього населення Сакуради, маленького містечка поблизу Тихого океану, є унікальні здібності. Деякі вміють підкорювати свідомість кішок, інші ж - переносити весь світ в певний момент минулого. Група осіб, відома як «Адміністрація», стежить за людьми з паранормальними здібностями і контролює їх використання.
Асай Кей і Харукі Місора працюють в шкільному виконавчому клубі, який виконує будь-яке завдання, доручене «Адміністрацією». У Місори є здібність «перезапускати» три дні. Тобто всі події і будь-які спогади останніх трьох днів, які «могли статися», не відбуваються. Кей вміє «запам'ятовувати» це минуле. Тому навіть якщо Місора скористається своїми силами, Кей збереже скинуті дні в пам'яті. Комбінуючи свої здібності, вони вирішують завдання, поставлені «Адміністрацією».


Тривалість: 25:12
Перелік серій
Епізод 01 – Пам'ять дитини
Якість:
Відео:
контейнер:
кодек:
розмір кадру: 1920 х 1080
бітрейт: 5335 кб/с
бітність: 8 біт

Аудіо:
мова: японська, оригінал
кодек: 2.0
бітрейт: 621 кб/с

Субтитри:
мова: українська
тип: програмні (м'які)
формат: *.
Info
General
Unique ID : 214752335167472016896808986858708984526 (0xA18FCB984BEE9C2A4CD7A290BD4EE2CE)
Complete name : D:\Аніме\Sagrada Reset [] [1080p]\Sagrada Reset - 01 (BD 1920x1080 x.264 ).
Format :
Format version : Version 4 / Version 2
File size : 1.05 GiB
Duration : 25 min 12 s
Overall bit rate mode : Variable
Overall bit rate : 5 960 kb/s
Encoded date : UTC 2018-11-03 20:35:17
Writing application : v28.2.0 ('The Awakening') 64-bit
Writing library : libebml v1.3.6 + v1.4.9
Attachments : OpenSans-SemiBold.ttf / CENTURY.ttf

Video
ID : 1
Format : AVC
Format/Info : Advanced Video Codec
Format profile : [email protected]
Format settings : CABAC / 5 Ref Frames
Format settings, CABAC : Yes
Format settings, ReFrames : 5 frames
Codec ID : V_MPEG4/ISO/AVC
Duration : 25 min 12 s
Bit rate : 5 335 kb/s
Width : 1 920 pixels
Height : 1 080 pixels
Display aspect ratio : 16:9
Frame rate mode : Constant
Frame rate : 23.976 (24000/1001) FPS
Color space : YUV
Chroma subsampling : 4:2:0
Bit depth : 8 bits
Scan type : Progressive
Bits/(Pixel*Frame) : 0.107
Stream size : 962 MiB (90%)
Writing library : core 152 r2851 ba24899
Encoding settings : cabac=1 / ref=5 / deblock=1:1:1 / analyse=0x3:0x113 / me=umh / subme=9 / psy=1 / psy_rd=1.00:0.00 / mixed_ref=1 / me_range=32 / chroma_me=1 / trellis=0 / 8x8dct=1 / cqm=0 / deadzone=21,11 / fast_pskip=0 / chroma_qp_offset=-2 / threads=24 / lookahead_threads=2 / sliced_threads=0 / nr=0 / decimate=1 / interlaced=0 / bluray_compat=0 / stitchable=1 / constrained_intra=0 / bframes=3 / b_pyramid=2 / b_adapt=2 / b_bias=0 / direct=1 / weightb=1 / open_gop=0 / weightp=1 / keyint=240 / keyint_min=23 / scenecut=40 / intra_refresh=0 / rc_lookahead=40 / rc=crf / mbtree=1 / crf=16.0 / qcomp=0.60 / qpmin=0 / qpmax=69 / qpstep=4 / ip_ratio=1.40 / aq=1:1.00
Language : Japanese
Default : Yes
Forced : No

Audio
ID : 2
Format :
Format/Info : Free Lossless Audio Codec
Codec ID : A_FLAC
Duration : 25 min 12 s
Bit rate mode : Variable
Bit rate : 621 kb/s
Channel(s) : 2 channels
Channel layout : L R
Sampling rate : 48.0 kHz
Frame rate : 11.719 FPS (4096 SPF)
Bit depth : 16 bits
Compression mode : Lossless
Stream size : 112 MiB (10%)
Writing library : libFLAC 1.3.2 (UTC 2017-01-01)
Language : Japanese
Default : Yes
Forced : No

Text
ID : 3
Format :
Codec ID : S_TEXT/
Codec ID/Info : Advanced Sub Station Alpha
Duration : 23 min 38 s
Bit rate : 188 b/s
Count of elements : 411
Compression mode : Lossless
Stream size : 32.7 KiB (0%)
Language : Ukrainian
Default : Yes
Forced : No
Скріншоти
Джерело: HorribleSubs + Переклад Mitsuruki (Ivan_Crystal, Romix)
Редакція: Mari Sabel
Українізований постер: Liska


Золотий реліз (завантажене не впливає на рейтинг)
 Трекер:    Зареєстрований   

Завантажити / скачати аніме українською



відео для новачків



 Зареєстрований:   2018-11-04 00:28
 Розмір:   1.05 GB 
 Оцінка аніме:   -/10 (Голосів: 0)
   
EvGaS 
Відео Гуртом - субтитрування
Відео Гуртом - субтитрування


З нами з: 27.02.12
Востаннє: 31.07.19
Повідомлень: 5669

2018-12-21 11:24  
Одна серія — …і посадка з капотуванням у злітну смугу. Sad (1)
Ivan_007 
VIP


З нами з: 08.08.11
Востаннє: 22.03.20
Повідомлень: 478

2019-01-10 09:24  
Це планувалося на озвучення, але бажаючих озвучувати нема взагалі, звичайно окрім перекладача, який збирається озвучувати, але не в одноголосці. Поки зайнятий іншими проектами, які скоро викладу
Ваш часовий пояс: GMT + 2 Години

Нова тема   Відповісти