Відчуження / Учитель на заміну / Detachment (2011) Remux 1080p Ukr/Eng | Sub Eng

Нові коментарі

Нова тема   Відповісти
Автор Повідомлення
IronBee 
Поважний учасник


З нами з: 08.02.10
Востаннє: 18.09.20
Повідомлень: 231

2018-11-03 22:35  
Відчуження / Учитель на заміну / Detachment (2011) Remux 1080p Ukr/Eng | Sub Eng

Відчуження / Учитель на заміну / Detachment (2011) Remux 1080p Ukr/Eng | Sub Eng


Жанр: драма
Країна: США



Кінокомпанія: Paper Street Films, Appian Way, Kingsgate Films
Режисер: Тоні Кей
Актори: Едріен Броуді, Марша Ґей Харден, Джеймс Каан, Крістіна Хендрікс, Люсі Ліу, Блайт Деннер, Тім Блек Нельсон, Вільям Петерсен, Самі Ґейл та інші.

Сюжет:
У Генрі справжній талант ладнати з учнями. Щоб уникнути будь-якої емоційної прив'язаності до підопічних, він вирішив ніде не затримуватися на тривалий час. Коли він прибуває на нове місце в державну школу, де вчителі абсолютно байдужі до долі учнів, він швидко стає зразком для наслідування і найпопулярнішим педагогом.


Тривалість: 01:37:50
Якість: Remux
Відео:
кодек:
розмір кадру: 1920 х 1080
бітрейт: 22.0 Mб/с

Аудіо # 1:
мова: українська
переклад: двоголосий закадровий | AniUA
кодек: 5.1
бітрейт: 1509 кб/с

Аудіо # 2:
мова: англійська
переклад: оригінал
кодек: -HD MA 5.1
бітрейт: 3221 кб/с

Субтитри:
мова: англійська
тип: пререндерні
формат: *.PGS
Info
General
Unique ID : 191081507068228075139715098019308975548 (0x8FC0F5AA307C9625D0C2E437FCAB35BC)
Complete name : E:\Films\Відчуження Учитель на заміну Detachment (2011) Remux 1080p UkrEng[Hutom].
Format :
Format version : Version 4
File size : 18.3 GiB
Duration : 1 h 37 min
Overall bit rate mode : Variable
Overall bit rate : 26.7 Mb/s
Encoded date : UTC 2018-10-21 17:41:59
Writing application : v27.0.0 ('Metropolis') 64-bit
Writing library : libebml v1.3.6 + v1.4.9

Video
ID : 1
Format : AVC
Format/Info : Advanced Video Codec
Format profile : [email protected]
Format settings : CABAC / 4 Ref Frames
Format settings, CABAC : Yes
Format settings, ReFrames : 4 frames
Codec ID : V_MPEG4/ISO/AVC
Duration : 1 h 37 min
Bit rate mode : Variable
Bit rate : 22.0 Mb/s
Maximum bit rate : 35.0 Mb/s
Width : 1 920 pixels
Height : 1 080 pixels
Display aspect ratio : 16:9
Frame rate mode : Constant
Frame rate : 23.976 (24000/1001) FPS
Standard : NTSC
Color space : YUV
Chroma subsampling : 4:2:0
Bit depth : 8 bits
Scan type : Progressive
Bits/(Pixel*Frame) : 0.442
Stream size : 15.0 GiB (82%)
Default : Yes
Forced : No
Color range : Limited
Color primaries : BT.709
Transfer characteristics : BT.709
Matrix coefficients : BT.709

Audio #1
ID : 2
Format :
Format/Info : Digital Theater Systems
Codec ID : A_DTS
Duration : 1 h 37 min
Bit rate mode : Constant
Bit rate : 1 509 kb/s
Channel(s) : 6 channels
Channel layout : C L R Ls Rs LFE
Sampling rate : 48.0 kHz
Frame rate : 93.750 FPS (512 SPF)
Bit depth : 16 bits
Compression mode : Lossy
Stream size : 1.03 GiB (6%)
Title : 5.1 1509 кбіт/сек двоголосий закадровий | AniUA
Language : Ukrainian
Default : Yes
Forced : No

Audio #2
ID : 3
Format : XLL
Format/Info : Digital Theater Systems
Commercial name : -HD Master Audio
Codec ID : A_DTS
Duration : 1 h 37 min
Bit rate mode : Variable
Bit rate : 3 221 kb/s
Channel(s) : 6 channels
Channel layout : C L R Ls Rs LFE
Sampling rate : 48.0 kHz
Frame rate : 93.750 FPS (512 SPF)
Bit depth : 24 bits
Compression mode : Lossless
Stream size : 2.20 GiB (12%)
Language : English
Default : No
Forced : No

Text
ID : 4
Format : PGS
Muxing mode : zlib
Codec ID : S_HDMV/PGS
Codec ID/Info : Picture based subtitle format used on BDs/HD-DVDs
Duration : 1 h 32 min
Bit rate : 27.0 kb/s
Count of elements : 2222
Stream size : 17.9 MiB (0%)
Language : English
Default : Yes
Forced : No
Скріншоти





Джерело: &
Особиста оцінка: 10 - без зайвих вагань рекомендую всім!


Авторський реліз (завантажувати можна без реєстрації)
 Трекер:    Зареєстрований   

Завантажити / скачати фільм українською



відео для новачків



 Зареєстрований:   2018-11-03 22:35
 Розмір:   18.26 GB 
 Оцінка фільму:   10/10 (Голосів: 12)
   
Ваш часовий пояс: GMT + 2 Години

Нова тема   Відповісти