Острів проклятих / Shutter Island (2010) 1080p 4xUkr/Eng | Sub Eng

Нові коментарі

Нова тема   Відповісти
Автор Повідомлення
staf777 
Відео Гуртом - підтримка та поширення
Відео Гуртом - підтримка та поширення


З нами з: 16.11.16
Востаннє: 20.11.19
Повідомлень: 3034

2018-11-03 21:28  
Острів проклятих / Shutter Island (2010) 1080p 4xUkr/Eng | Sub Eng

Острів проклятих / Shutter Island (2010) 1080p 4xUkr/Eng | Sub Eng


Жанр: містика, трилер, детектив
Країна: США



Кінокомпанія: Paramount Pictures, Phoenix Pictures, Sikelia Productions, Appian Way
Режисер: Мартін Скорсезе
Актори: Леонардо Ді Капріо, Марк Руффало, Бен Кінгслі, Макс фон Сюдов, Мішель Вільямс, Емілі Мортімер, Патріція Кларксон, Джекі Ерл Хейлі, Тед Левайн, Джон Керролл Лінч, Еліас Котеас та інші.

Сюжет:
Два американських судових пристави відправляються на один з островів у штаті Массачусетс, щоб розслідувати зникнення пацієнтки клініки для божевільних злочинців. При проведенні розслідування їм доведеться зіткнутися з павутинням брехні, ураганом який обрушився, і смертельним бунтом мешканців клініки, які кидають їх на острові, як у пастці.


Тривалість: 02:18:04
Якість: 1080p
Відео:
кодек:
розмір кадру: 1920 х 816
бітрейт: 8 600 кб/с

Аудіо # 1:
мова: українська
переклад: професійний дубльований
кодек: 5.1
бітрейт: 448 кб/с

Аудіо # 2:
мова: українська
переклад: двоголосий закадровий
кодек: 2.0
бітрейт: 192 кб/с

Аудіо # 3:
мова: українська
переклад: багатоголосий закадровий
кодек: 2.0
бітрейт: 192 кб/с

Аудіо # 4:
мова: українська
переклад: багатоголосий закадровий
кодек: 2.0
бітрейт: 192 кб/с

Аудіо # 5:
мова: англійська
переклад: оригінал
кодек: 5.1
бітрейт: 640 кб/с

Субтитри:
мова: англійська
тип: програмні (м'які)
формат: *.srt
MI
General
Unique ID : 270811779069580374005229765115369403416 (0xCBBC7392E6C6B15F3D0FB8E74212B418)
Complete name : G:\Трилер\Shutter Island (2010) 1080p [4xUkr, Eng] [Hurtom].
Format :
Format version : Version 4 / Version 2
File size : 9.90 GiB
Duration : 2 h 18 min
Overall bit rate : 10.3 Mb/s
Movie name : Shutter Island (2010) 1080p [4xUkr, Eng] [Hurtom]
Encoded date : UTC 2018-11-04 08:50:10
Writing application : v24.0.0 ('Beyond The Pale') 64-bit
Writing library : libebml v1.3.6 + v1.4.9
Attachments : poster.jpg

Video
ID : 1
Format : AVC
Format/Info : Advanced Video Codec
Format profile : [email protected]
Format settings : CABAC / 5 Ref Frames
Format settings, CABAC : Yes
Format settings, ReFrames : 5 frames
Codec ID : V_MPEG4/ISO/AVC
Duration : 2 h 18 min
Bit rate : 8 600 kb/s
Width : 1 920 pixels
Height : 816 pixels
Display aspect ratio : 2.35:1
Frame rate mode : Constant
Frame rate : 23.976 (24000/1001) FPS
Color space : YUV
Chroma subsampling : 4:2:0
Bit depth : 8 bits
Scan type : Progressive
Bits/(Pixel*Frame) : 0.229
Stream size : 8.29 GiB (84%)
Title : Shutter Island 2010 1080p [MediaClub - MINION]
Writing library : core 142 r2431 ac76440
Encoding settings : cabac=1 / ref=5 / deblock=1:-3:-3 / analyse=0x3:0x133 / me=esa / subme=11 / psy=1 / psy_rd=1.00:0.10 / mixed_ref=1 / me_range=48 / chroma_me=1 / trellis=2 / 8x8dct=1 / cqm=0 / deadzone=21,11 / fast_pskip=0 / chroma_qp_offset=-3 / threads=6 / lookahead_threads=1 / sliced_threads=0 / nr=0 / decimate=0 / interlaced=0 / bluray_compat=0 / constrained_intra=0 / bframes=16 / b_pyramid=2 / b_adapt=2 / b_bias=0 / direct=3 / weightb=1 / open_gop=0 / weightp=2 / keyint=240 / keyint_min=23 / scenecut=40 / intra_refresh=0 / rc=2pass / mbtree=0 / bitrate=8600 / ratetol=1.0 / qcomp=0.60 / qpmin=10 / qpmax=51 / qpstep=4 / cplxblur=20.0 / qblur=0.5 / ip_ratio=1.40 / pb_ratio=1.30 / aq=1:1.00
Language : English
Default : Yes
Forced : No

Audio #1
ID : 2
Format : AC-3
Format/Info : Audio Coding 3
Codec ID : A_AC3
Duration : 2 h 18 min
Bit rate mode : Constant
Bit rate : 448 kb/s
Channel(s) : 6 channels
Channel positions : Front: L C R, Side: L R, LFE
Sampling rate : 48.0 kHz
Frame rate : 31.250 FPS (1536 SPF)
Bit depth : 16 bits
Compression mode : Lossy
Stream size : 442 MiB (4%)
Title : UKR @ 448 Kbps | 5.1 | DUB, DVD
Language : Ukrainian
Service kind : Complete Main
Default : Yes
Forced : Yes

Audio #2
ID : 3
Format : AC-3
Format/Info : Audio Coding 3
Codec ID : A_AC3
Duration : 2 h 18 min
Bit rate mode : Constant
Bit rate : 192 kb/s
Channel(s) : 2 channels
Channel positions : Front: L R
Sampling rate : 48.0 kHz
Frame rate : 31.250 FPS (1536 SPF)
Bit depth : 16 bits
Compression mode : Lossy
Stream size : 190 MiB (2%)
Title : UKR @ 192 Kbps | 2.0 | DVO, 1+1
Language : Ukrainian
Service kind : Complete Main
Default : No
Forced : No

Audio #3
ID : 4
Format : AC-3
Format/Info : Audio Coding 3
Codec ID : A_AC3
Duration : 2 h 18 min
Bit rate mode : Constant
Bit rate : 192 kb/s
Channel(s) : 2 channels
Channel positions : Front: L R
Sampling rate : 48.0 kHz
Frame rate : 31.250 FPS (1536 SPF)
Bit depth : 16 bits
Compression mode : Lossy
Stream size : 190 MiB (2%)
Title : UKR @ 192 Kbps | 2.0 | MVO, ICTV
Language : Ukrainian
Service kind : Complete Main
Default : No
Forced : No

Audio #4
ID : 5
Format : AC-3
Format/Info : Audio Coding 3
Codec ID : A_AC3
Duration : 2 h 18 min
Bit rate mode : Constant
Bit rate : 192 kb/s
Channel(s) : 2 channels
Channel positions : Front: L R
Sampling rate : 48.0 kHz
Frame rate : 31.250 FPS (1536 SPF)
Bit depth : 16 bits
Compression mode : Lossy
Stream size : 190 MiB (2%)
Title : UKR @ 192 Kbps | 2.0 | MVO, Ukraina
Language : Ukrainian
Service kind : Complete Main
Default : No
Forced : No

Audio #5
ID : 6
Format : AC-3
Format/Info : Audio Coding 3
Codec ID : A_AC3
Duration : 2 h 18 min
Bit rate mode : Constant
Bit rate : 640 kb/s
Channel(s) : 6 channels
Channel positions : Front: L C R, Side: L R, LFE
Sampling rate : 48.0 kHz
Frame rate : 31.250 FPS (1536 SPF)
Bit depth : 16 bits
Compression mode : Lossy
Stream size : 632 MiB (6%)
Language : English
Service kind : Complete Main
Default : No
Forced : No

Text #1
ID : 7
Format : UTF-8
Codec ID : S_TEXT/UTF8
Codec ID/Info : UTF-8 Plain Text
Duration : 2 h 8 min
Bit rate : 58 b/s
Count of elements : 1557
Stream size : 55.3 KiB (0%)
Title : ENG
Language : English
Default : No
Forced : No

Text #2
ID : 8
Format : UTF-8
Codec ID : S_TEXT/UTF8
Codec ID/Info : UTF-8 Plain Text
Duration : 2 h 8 min
Bit rate : 61 b/s
Count of elements : 1661
Stream size : 58.2 KiB (0%)
Title : ENG SDH
Language : English
Default : No
Forced : No

Menu
00:00:00.000 : en:Chapter 01
00:06:33.140 : en:Chapter 02
00:13:07.787 : en:Chapter 03
00:20:20.928 : en:Chapter 04
00:26:35.634 : en:Chapter 05
00:34:54.800 : en:Chapter 06
00:41:23.521 : en:Chapter 07
00:48:29.572 : en:Chapter 08
00:55:17.896 : en:Chapter 09
01:04:02.671 : en:Chapter 10
01:10:05.408 : en:Chapter 11
01:16:54.399 : en:Chapter 12
01:23:05.729 : en:Chapter 13
01:31:37.742 : en:Chapter 14
01:37:29.716 : en:Chapter 15
01:45:39.082 : en:Chapter 16
01:52:29.783 : en:Chapter 17
01:57:39.969 : en:Chapter 18
02:03:50.921 : en:Chapter 19
02:10:30.988 : en:Chapter 20
02:18:04.524 : en:Chapter 21





Подяки:
п. MAKAPOHHIK за наданий сирий звук до доріжки #2.
п. karvai0, igrik09 за наданий сирий звук до доріжки #3.
п. Sando7 за наданий сирий звук до доріжки #4.
п. robotron005 за синхронізацію доріжок #2 і #3.
п. lenina4040 за синхронізацію доріжки #4.
п. Deluxeman за українізований постер.

Цитата:
Примітка від lenina4040 до доріжки #4: На проміжку 00:39:22,498-00:39:25,808 відсутнє озвучення, одна фраза (перехід з реклами на трансляцію), тому вставив шматок з доріжки 1+1.

Джерело: &
Особиста оцінка: 9 - давно не бачив настільки якісне кіно
Острів проклятих / Shutter Island (2010) 1080p 4xUkr/Eng | Sub Eng Острів проклятих / Shutter Island (2010) 1080p 4xUkr/Eng | Sub Eng


 Трекер:    Зареєстрований   

Завантажити / скачати фільм українською



відео для новачків



 Зареєстрований:   2018-11-04 12:53
 Розмір:   9.9 GB 
 Оцінка фільму:   9.3/10 (Голосів: 21)
   
kryk-v.ya. 
VIP


З нами з: 14.02.14
Востаннє: 20.11.19
Повідомлень: 1678

2018-11-05 08:06  
Такі фільми дивитись одна насолода.
antik_2008 
Релізер і модератор відео


З нами з: 20.10.08
Востаннє: 20.11.19
Повідомлень: 2682

2019-09-29 22:46  
kryk-v.ya. написано:
Такі фільми дивитись одна насолода.
Згоден

staf777
Remux чекати ?

Ваш часовий пояс: GMT + 2 Години

Нова тема   Відповісти