Острів проклятих / Shutter Island (2010) 720p 4xUkr/Eng | Sub Eng

Нові коментарі

Нова тема   Відповісти
Автор Повідомлення
staf777 
Відео Гуртом - підтримка та поширення
Відео Гуртом - підтримка та поширення


З нами з: 16.11.16
Востаннє: 18.11.19
Повідомлень: 3031

2018-11-03 21:15  
Острів проклятих / Shutter Island (2010) 720p 4xUkr/Eng | Sub Eng

Острів проклятих / Shutter Island (2010) 720p 4xUkr/Eng | Sub Eng


Жанр: містика, трилер, детектив
Країна: США



Кінокомпанія: Paramount Pictures, Phoenix Pictures, Sikelia Productions, Appian Way
Режисер: Мартін Скорсезе
Актори: Леонардо Ді Капріо, Марк Руффало, Бен Кінгслі, Макс фон Сюдов, Мішель Вільямс, Емілі Мортімер, Патріція Кларксон, Джекі Ерл Хейлі, Тед Левайн, Джон Керролл Лінч, Еліас Котеас та інші.

Сюжет:
Два американських судових пристави відправляються на один з островів у штаті Массачусетс, щоб розслідувати зникнення пацієнтки клініки для божевільних злочинців. При проведенні розслідування їм доведеться зіткнутися з павутинням брехні, ураганом який обрушився, і смертельним бунтом мешканців клініки, які кидають їх на острові, як у пастці.


Тривалість: 02:18:04
Якість: 720p
Відео:
кодек:
розмір кадру: 1280 x 544
бітрейт: 7 332 кб/с

Аудіо # 1:
мова: українська
переклад: професійний дубльований
кодек: 5.1
бітрейт: 448 кб/с

Аудіо # 2:
мова: українська
переклад: двоголосий закадровий
кодек: 2.0
бітрейт: 192 кб/с

Аудіо # 3:
мова: українська
переклад: багатоголосий закадровий
кодек: 2.0
бітрейт: 192 кб/с

Аудіо # 4:
мова: українська
переклад: багатоголосий закадровий
кодек: 2.0
бітрейт: 192 кб/с

Аудіо # 5:
мова: англійська
переклад: оригінал
кодек: 5.1
бітрейт: 1509 кб/с

Субтитри:
мова: англійська
тип: програмні (м'які)
формат: *.srt
Info
General
Unique ID : 312547477425140918335387715309597204454 (0xEB22745F754FA75BA7115011E8219FE6)
Complete name : G:\Трилер\Shutter Island (2010) 720p [4xUkr, Eng] [Hurtom].
Format :
Format version : Version 4 / Version 2
File size : 9.52 GiB
Duration : 2 h 18 min
Overall bit rate : 9 869 kb/s
Movie name : Shutter Island (2010) 720p [4xUkr, Eng] [Hurtom]
Encoded date : UTC 2018-11-03 17:07:50
Writing application : v24.0.0 ('Beyond The Pale') 64-bit
Writing library : libebml v1.3.6 + v1.4.9
Attachments : poster.jpg

Video
ID : 1
Format : AVC
Format/Info : Advanced Video Codec
Format profile : [email protected]
Format settings : CABAC / 12 Ref Frames
Format settings, CABAC : Yes
Format settings, ReFrames : 12 frames
Codec ID : V_MPEG4/ISO/AVC
Duration : 2 h 18 min
Bit rate : 7 332 kb/s
Width : 1 280 pixels
Height : 544 pixels
Display aspect ratio : 2.35:1
Frame rate mode : Constant
Frame rate : 23.976 (24000/1001) FPS
Color space : YUV
Chroma subsampling : 4:2:0
Bit depth : 8 bits
Scan type : Progressive
Bits/(Pixel*Frame) : 0.439
Stream size : 7.07 GiB (74%)
Writing library : core 142 r2491 24e4fed
Encoding settings : cabac=1 / ref=12 / deblock=1:-3:-3 / analyse=0x3:0x133 / me=umh / subme=11 / psy=1 / psy_rd=1.00:0.00 / mixed_ref=1 / me_range=32 / chroma_me=1 / trellis=2 / 8x8dct=1 / cqm=0 / deadzone=21,11 / fast_pskip=1 / chroma_qp_offset=-2 / threads=12 / lookahead_threads=3 / sliced_threads=0 / nr=0 / decimate=1 / interlaced=0 / bluray_compat=0 / constrained_intra=0 / bframes=10 / b_pyramid=2 / b_adapt=2 / b_bias=0 / direct=1 / weightb=1 / open_gop=0 / weightp=2 / keyint=250 / keyint_min=23 / scenecut=40 / intra_refresh=0 / rc_lookahead=60 / rc=crf / mbtree=0 / crf=15.0 / qcomp=0.65 / qpmin=0 / qpmax=69 / qpstep=4 / vbv_maxrate=62500 / vbv_bufsize=78125 / crf_max=0.0 / nal_hrd=none / filler=0 / ip_ratio=1.40 / pb_ratio=1.30 / aq=1:0.80
Language : English
Default : Yes
Forced : No
Color range : Limited
Color primaries : BT.709
Transfer characteristics : BT.709
Matrix coefficients : BT.709

Audio #1
ID : 2
Format : AC-3
Format/Info : Audio Coding 3
Codec ID : A_AC3
Duration : 2 h 18 min
Bit rate mode : Constant
Bit rate : 448 kb/s
Channel(s) : 6 channels
Channel positions : Front: L C R, Side: L R, LFE
Sampling rate : 48.0 kHz
Frame rate : 31.250 FPS (1536 SPF)
Bit depth : 16 bits
Compression mode : Lossy
Stream size : 442 MiB (5%)
Title : UKR @ 448 Kbps | 5.1 | DUB, DVD
Language : Ukrainian
Service kind : Complete Main
Default : Yes
Forced : Yes

Audio #2
ID : 3
Format : AC-3
Format/Info : Audio Coding 3
Codec ID : A_AC3
Duration : 2 h 18 min
Bit rate mode : Constant
Bit rate : 192 kb/s
Channel(s) : 2 channels
Channel positions : Front: L R
Sampling rate : 48.0 kHz
Frame rate : 31.250 FPS (1536 SPF)
Bit depth : 16 bits
Compression mode : Lossy
Stream size : 190 MiB (2%)
Title : UKR @ 192 Kbps | 2.0 | DVO, 1+1
Language : Ukrainian
Service kind : Complete Main
Default : No
Forced : No

Audio #3
ID : 4
Format : AC-3
Format/Info : Audio Coding 3
Codec ID : A_AC3
Duration : 2 h 18 min
Bit rate mode : Constant
Bit rate : 192 kb/s
Channel(s) : 2 channels
Channel positions : Front: L R
Sampling rate : 48.0 kHz
Frame rate : 31.250 FPS (1536 SPF)
Bit depth : 16 bits
Compression mode : Lossy
Stream size : 190 MiB (2%)
Title : UKR @ 192 Kbps | 2.0 | MVO, ICTV
Language : Ukrainian
Service kind : Complete Main
Default : No
Forced : No

Audio #4
ID : 5
Format : AC-3
Format/Info : Audio Coding 3
Codec ID : A_AC3
Duration : 2 h 18 min
Bit rate mode : Constant
Bit rate : 192 kb/s
Channel(s) : 2 channels
Channel positions : Front: L R
Sampling rate : 48.0 kHz
Frame rate : 31.250 FPS (1536 SPF)
Bit depth : 16 bits
Compression mode : Lossy
Stream size : 190 MiB (2%)
Title : UKR @ 192 Kbps | 2.0 | MVO, Ukraina
Language : Ukrainian
Service kind : Complete Main
Default : No
Forced : No

Audio #5
ID : 6
Format :
Format/Info : Digital Theater Systems
Codec ID : A_DTS
Duration : 2 h 18 min
Bit rate mode : Constant
Bit rate : 1 509 kb/s
Channel(s) : 6 channels
Channel positions : Front: L C R, Side: L R, LFE
Sampling rate : 48.0 kHz
Frame rate : 93.750 FPS (512 SPF)
Bit depth : 24 bits
Compression mode : Lossy
Stream size : 1.46 GiB (15%)
Language : English
Default : No
Forced : No

Text #1
ID : 7
Format : UTF-8
Codec ID : S_TEXT/UTF8
Codec ID/Info : UTF-8 Plain Text
Duration : 2 h 8 min
Bit rate : 58 b/s
Count of elements : 1557
Stream size : 55.3 KiB (0%)
Title : ENG
Language : English
Default : No
Forced : No

Text #2
ID : 8
Format : UTF-8
Codec ID : S_TEXT/UTF8
Codec ID/Info : UTF-8 Plain Text
Duration : 2 h 8 min
Bit rate : 61 b/s
Count of elements : 1661
Stream size : 58.2 KiB (0%)
Title : ENG SDH
Language : English
Default : No
Forced : No

Menu
00:00:00.000 : en:Chapter 1
00:06:33.140 : en:Chapter 2
00:13:07.787 : en:Chapter 3
00:20:20.928 : en:Chapter 4
00:26:35.634 : en:Chapter 5
00:34:54.800 : en:Chapter 6
00:41:23.521 : en:Chapter 7
00:48:29.572 : en:Chapter 8
00:55:17.896 : en:Chapter 9
01:04:02.671 : en:Chapter 10
01:10:05.408 : en:Chapter 11
01:16:54.399 : en:Chapter 12
01:23:05.729 : en:Chapter 13
01:31:37.742 : en:Chapter 14
01:37:29.716 : en:Chapter 15
01:45:39.082 : en:Chapter 16
01:52:29.783 : en:Chapter 17
01:57:39.969 : en:Chapter 18
02:03:50.921 : en:Chapter 19
02:10:30.988 : en:Chapter 20




Подяки:
п. MAKAPOHHIK за наданий сирий звук до доріжки #2.
п. karvai0, igrik09 за наданий сирий звук до доріжки #3.
п. Sando7 за наданий сирий звук до доріжки #4.
п. robotron005 за синхронізацію доріжок #2 і #3.
п. lenina4040 за синхронізацію доріжки #4.
п. Deluxeman за українізований постер.

Цитата:
Примітка від lenina4040 до доріжки #4: На проміжку 00:39:22,498-00:39:25,808 відсутнє озвучення, одна фраза (перехід з реклами на трансляцію), тому вставив шматок з доріжки 1+1.

Джерело: &
Особиста оцінка: 9 - давно не бачив настільки якісне кіно
Острів проклятих / Shutter Island (2010) 720p 4xUkr/Eng | Sub Eng Острів проклятих / Shutter Island (2010) 720p 4xUkr/Eng | Sub Eng


 Трекер:    Зареєстрований   

Завантажити / скачати фільм українською



відео для новачків



 Зареєстрований:   2018-11-03 21:15
 Розмір:   9.52 GB 
 Оцінка фільму:   8.9/10 (Голосів: 8)
   
casper101 
VIP


З нами з: 03.12.09
Востаннє: 18.11.19
Повідомлень: 432

2018-11-03 21:38  
дали б золото для заохочення.
Ваш часовий пояс: GMT + 2 Години

Нова тема   Відповісти