Всі жінки відьми / Усі жінки - відьми (Сезон 1) / Charmed (Season 1) (1998-1999) 720p Ukr/Eng

Нові коментарі

Нова тема   Відповісти
Автор Повідомлення
Anonymous 







2018-11-03 20:10  
Всі жінки відьми / Усі жінки - відьми (Сезон 1) / Charmed (Season 1) (1998-1999) 720p Ukr/Eng

Всі жінки відьми / Усі жінки - відьми (Сезон 1) / Charmed (Season 1) (1998-1999) 720p Ukr/Eng


Жанр: драма, фентезі, детектив
Країна: США



Кінокомпанія: Spelling Television, Northshore Productions, Paramount Pictures
Режисер: Констенс М. Бердж
Актори: Шеннон Догерті, Голлі Марі Коумз, Алісса Мілано, Роуз Макгавен, Браян Краузе та інші

Сюжет:
Усе починається з того, як одна з героїнь повертається у Сан-Франциско до старших сестер. Тієї ж ночі Прю, Пайпер і Фібі загадковим чином знаходять у будинку своєї бабусі чаклунську книжку… Вона дає поштовх до розвитку надзвичайних здібностей у сестер, причому в кожної дар свій, неповторний. Одна може зупиняти час, друга - пересувати предмети на відстані, третя - передбачати майбутнє. Життя родичок сповнюється загадками, а ще дивовижними і небезпечними пригодами.


Тривалість: 1 серія: 45хв (цілком серій: 22 з 22)
Перелік серій
Charmed. Season 1, Episode 01. Something Wicca This Way Comes
Charmed. Season 1, Episode 02. I've Got You Under My Skin
Charmed. Season 1, Episode 03. Thank You For Not Morphing
Charmed. Season 1, Episode 04. Dead Man Dating
Charmed. Season 1, Episode 05. Dream Sorcerer
Charmed. Season 1, Episode 06. The Wedding From Hell
Charmed. Season 1, Episode 07. The Fourth Sister
Charmed. Season 1, Episode 08. The Truth Is Out There And It Hurts
Charmed. Season 1, Episode 09. The Witch Is Back
Charmed. Season 1, Episode 10. Wicca Envy
Charmed. Season 1, Episode 11. Feats Of Clay
Charmed. Season 1, Episode 12. The Wendigo
Charmed. Season 1, Episode 13. From Fear To Eternity
Charmed. Season 1, Episode 14. Secrets And Guys
Charmed. Season 1, Episode 15. Is There A Woogy In The House
Charmed. Season 1, Episode 16. Which Prue Is It Anyway
Charmed. Season 1, Episode 17. That '70s Episode
Charmed. Season 1, Episode 18. When Bad Warlocks Turn Good
Charmed. Season 1, Episode 19. Out Of Sight
Charmed. Season 1, Episode 20. The Power Of Two
Charmed. Season 1, Episode 21. Love Hurts
Charmed. Season 1, Episode 22. Deja Vu All Over Again
Якість:
Відео:
кодек:
розмір кадру: 1280 х 720
бітрейт: 4574 кб/с

Аудіо # 1:
мова: українська
переклад: багатоголосий закадровий
кодек: 2.0
бітрейт: 192 кб/с

Аудіо # 2:
мова: англійська
переклад: оригінал
кодек: 2.0
бітрейт: 192 кб/с

Джерело озвучення:
Info
Complete name : F:\Charmed (S01)\S01E01.
Format :
Format version : Version 4 / Version 2
File size : 1.51 GiB
Duration : 43 min 30 s
Overall bit rate : 4 960 kb/s
Encoded date : UTC 2018-11-03 09:42:24
Writing application : v28.2.0 ('The Awakening') 64-bit
Writing library : libebml v1.3.6 + v1.4.9
Attachments : poster.png

Video
ID : 1
Format : AVC
Format/Info : Advanced Video Codec
Format profile : [email protected]
Format settings : CABAC / 5 Ref Frames
Format settings, CABAC : Yes
Format settings, ReFrames : 5 frames
Codec ID : V_MPEG4/ISO/AVC
Duration : 43 min 29 s
Bit rate : 4 574 kb/s
Width : 1 280 pixels
Height : 720 pixels
Display aspect ratio : 16:9
Frame rate mode : Constant
Frame rate : 23.976 (24000/1001) FPS
Color space : YUV
Chroma subsampling : 4:2:0
Bit depth : 8 bits
Scan type : Progressive
Bits/(Pixel*Frame) : 0.207
Stream size : 1.39 GiB (92%)
Writing library : core 157 r2935 545de2f
Encoding settings : cabac=1 / ref=5 / deblock=1:-3:-3 / analyse=0x3:0x113 / me=umh / subme=8 / psy=1 / psy_rd=1.00:0.15 / mixed_ref=1 / me_range=24 / chroma_me=1 / trellis=1 / 8x8dct=1 / cqm=0 / deadzone=21,11 / fast_pskip=1 / chroma_qp_offset=-3 / threads=22 / lookahead_threads=3 / sliced_threads=0 / nr=0 / decimate=1 / interlaced=0 / bluray_compat=0 / constrained_intra=0 / bframes=3 / b_pyramid=2 / b_adapt=1 / b_bias=0 / direct=3 / weightb=1 / open_gop=0 / weightp=2 / keyint=240 / keyint_min=24 / scenecut=40 / intra_refresh=0 / rc_lookahead=50 / rc=2pass / mbtree=1 / bitrate=4574 / ratetol=1.0 / qcomp=0.60 / qpmin=0 / qpmax=69 / qpstep=4 / cplxblur=20.0 / qblur=0.5 / ip_ratio=1.40 / aq=1:0.80
Language : English
Default : Yes
Forced : No

Audio #1
ID : 2
Format : AC-3
Format/Info : Audio Coding 3
Commercial name : Dolby Digital
Codec ID : A_AC3
Duration : 43 min 30 s
Bit rate mode : Constant
Bit rate : 192 kb/s
Channel(s) : 2 channels
Channel layout : L R
Sampling rate : 48.0 kHz
Frame rate : 31.250 FPS (1536 SPF)
Bit depth : 16 bits
Compression mode : Lossy
Stream size : 59.8 MiB (4%)
Title : ТЕТ
Language : Ukrainian
Service kind : Complete Main
Default : Yes
Forced : No

Audio #2
ID : 3
Format : AC-3
Format/Info : Audio Coding 3
Commercial name : Dolby Digital
Codec ID : A_AC3
Duration : 43 min 30 s
Bit rate mode : Constant
Bit rate : 192 kb/s
Channel(s) : 2 channels
Channel layout : L R
Sampling rate : 48.0 kHz
Frame rate : 31.250 FPS (1536 SPF)
Bit depth : 16 bits
Compression mode : Lossy
Stream size : 59.8 MiB (4%)
Language : English
Service kind : Complete Main
Default : No
Forced : No

Menu
00:00:00.000 : en:00:00:00.000
00:04:40.739 : en:00:04:40.739
00:18:47.335 : en:00:18:47.335
00:26:39.306 : en:00:26:39.306
00:36:39.656 : en:00:36:39.656
00:42:49.108 : en:00:42:49.108
Скріншоти





Подяки: пану krigg070 за синхронізацію доріжок та Ermolenko за постер
Джерело:
Особиста оцінка: 8 - мені сподобалося





Срібний реліз (на рейтинг впливає 50% завантаженого)
 Трекер:    Зареєстрований   

Завантажити / скачати серіал українською



відео для новачків



 Зареєстрований:   2018-11-03 20:10
 Розмір:   33.19 GB 
 Оцінка серіалу:   10/10 (Голосів: 11)
   
Ваш часовий пояс: GMT + 2 Години

Нова тема   Відповісти