Усі жінки - відьми (Сезон 1) / Charmed (Season 1) (1998-1999) 1080p Ukr/Eng | sub Eng

Нові коментарі

Нова тема   Відповісти
Автор Повідомлення
Anonymous 







2018-11-03 13:36  
Усі жінки - відьми (Сезон 1) / Charmed (Season 1) (1998-1999) 1080p Ukr/Eng | sub Eng

Усі жінки - відьми (Сезон 1) / Charmed (Season 1) (1998-1999) 1080p Ukr/Eng | sub Eng


Жанр: драма, фентезі, містика
Країна: США



Кінокомпанія: Spelling Television, Northshore Productions, Paramount Pictures
Режисер: Констенс М. Бердж (Constance M. Burge)
Актори: Шеннон Догерті (Shannen Doherty), Голлі Марі Коумз (Holly Marie Combs ), Алісса Мілано (Alyssa Milano) та інші

Сюжет:
Усе починається з того, як одна з героїнь повертається у Сан-Франциско до старших сестер. Тієї ж ночі Прю, Пайпер і Фібі загадковим чином знаходять у будинку своєї бабусі чаклунську книжку… Вона дає поштовх до розвитку надзвичайних здібностей у сестер, причому в кожної дар свій, неповторний. Одна може зупиняти час, друга - пересувати предмети на відстані, третя - передбачати майбутнє. Життя сестер сповнюється загадками, а ще дивовижними і небезпечними пригодами.


Тривалість: 1 серія: ~44 хв. (цілком серій: 22)
Перелік серій
01) Something Wicca This Way Comes
02) I've Got You Under My Skin
03) Thank You For Not Morphing
04) Dead Man Dating
05) Dream Sorcerer
06) The Wedding From Hell
07) The Fourth Sister
08) The Truth Is Out There And It Hurts
09) The Witch Is Back
10) Wicca Envy
11) Feats Of Clay
12) The Wendigo
13) From Fear To Eternity
14) Secrets And Guys
15) Is There A Woogy In The House?
16) Which Prue Is It Anyway?
17) That '70s Episode
18) When Bad Warlocks Turn Good
19) Out Of Sight
20) The Power Of Two
21) Love Hurts
22) Déjà Vu All Over Again
Якість:
Відео:
кодек:
розмір кадру: 1920 х 1080
бітрейт: ~8400 кб/с

Аудіо # 1:
мова: українська
переклад: багатоголосий закадровий
кодек: 2.0
бітрейт: 192 кб/с

Аудіо # 2:
мова: англійська
переклад: оригінал
кодек: 2.0
бітрейт: 192 кб/с

Джерело озвучення:


Субтитри:
мова: англійська
тип: пререндерні
формат: *.sub
Info
General
Unique ID : 119965863979486662840764097131992338249 (0x5A4095C0DF24F9DD6D9E13509E2C4F49)
Complete name : E:\Support\Charmed (Season 1) [, 1080p, Ukr, Eng]\Charmed. S01E01. Something Wicca This Way Comes.
Format :
Format version : Version 4
File size : 2.70 GiB
Duration : 43 min 30 s
Overall bit rate : 8 882 kb/s
Encoded date : UTC 2018-11-03 10:16:57
Writing application : v28.2.0 ('The Awakening') 64-bit
Writing library : libebml v1.3.6 + v1.4.9

Video
ID : 1
Format : AVC
Format/Info : Advanced Video Codec
Format profile : [email protected]
Format settings : CABAC / 4 Ref Frames
Format settings, CABAC : Yes
Format settings, ReFrames : 4 frames
Codec ID : V_MPEG4/ISO/AVC
Duration : 43 min 29 s
Bit rate : 8 496 kb/s
Width : 1 920 pixels
Height : 1 080 pixels
Display aspect ratio : 16:9
Frame rate mode : Constant
Frame rate : 23.976 (24000/1001) FPS
Color space : YUV
Chroma subsampling : 4:2:0
Bit depth : 8 bits
Scan type : Progressive
Bits/(Pixel*Frame) : 0.171
Stream size : 2.58 GiB (96%)
Writing library : core 157 r2935 545de2f
Encoding settings : cabac=1 / ref=4 / deblock=1:-3:-3 / analyse=0x3:0x113 / me=umh / subme=8 / psy=1 / psy_rd=1.00:0.15 / mixed_ref=1 / me_range=24 / chroma_me=1 / trellis=1 / 8x8dct=1 / cqm=0 / deadzone=21,11 / fast_pskip=1 / chroma_qp_offset=-3 / threads=34 / lookahead_threads=5 / sliced_threads=0 / nr=0 / decimate=1 / interlaced=0 / bluray_compat=0 / constrained_intra=0 / bframes=3 / b_pyramid=2 / b_adapt=1 / b_bias=0 / direct=3 / weightb=1 / open_gop=0 / weightp=2 / keyint=240 / keyint_min=24 / scenecut=40 / intra_refresh=0 / rc_lookahead=50 / rc=2pass / mbtree=1 / bitrate=8496 / ratetol=1.0 / qcomp=0.60 / qpmin=0 / qpmax=69 / qpstep=4 / cplxblur=20.0 / qblur=0.5 / ip_ratio=1.40 / aq=1:0.80
Default : Yes
Forced : No

Audio #1
ID : 2
Format : AC-3
Format/Info : Audio Coding 3
Commercial name : Dolby Digital
Codec ID : A_AC3
Duration : 43 min 30 s
Bit rate mode : Constant
Bit rate : 192 kb/s
Channel(s) : 2 channels
Channel layout : L R
Sampling rate : 48.0 kHz
Frame rate : 31.250 FPS (1536 SPF)
Bit depth : 16 bits
Compression mode : Lossy
Stream size : 59.8 MiB (2%)
Language : Ukrainian
Service kind : Complete Main
Default : Yes
Forced : No

Audio #2
ID : 3
Format : AC-3
Format/Info : Audio Coding 3
Commercial name : Dolby Digital
Codec ID : A_AC3
Duration : 43 min 30 s
Bit rate mode : Constant
Bit rate : 192 kb/s
Channel(s) : 2 channels
Channel layout : L R
Sampling rate : 48.0 kHz
Frame rate : 31.250 FPS (1536 SPF)
Bit depth : 16 bits
Compression mode : Lossy
Stream size : 59.8 MiB (2%)
Language : English
Service kind : Complete Main
Default : No
Forced : No

Text
ID : 4
Format : VobSub
Muxing mode : zlib
Codec ID : S_VOBSUB
Codec ID/Info : Picture based subtitle format used on DVDs
Duration : 42 min 17 s
Bit rate : 13.2 kb/s
Count of elements : 644
Stream size : 3.99 MiB (0%)
Language : English
Default : No
Forced : No

Menu
00:00:00.000 : en:00:00:00.000
00:04:40.739 : en:00:04:40.739
00:18:47.335 : en:00:18:47.335
00:26:39.306 : en:00:26:39.306
00:36:39.656 : en:00:36:39.656
00:42:49.108 : en:00:42:49.108
Скріншоти

Дякую krigg070 за запис і синхронізацію української доріжки

Джерело: &
Особиста оцінка: 10 - класика





Золотий реліз (завантажене не впливає на рейтинг)
 Трекер:    Зареєстрований   

Завантажити / скачати серіал українською



відео для новачків



 Зареєстрований:   2018-11-03 13:36
 Розмір:   59.42 GB 
 Оцінка серіалу:   10/10 (Голосів: 21)
   
zed 
Відео Гуртом - дизайнер
Відео Гуртом - дизайнер


З нами з: 10.12.13
Востаннє: 25.11.20
Повідомлень: 304

2018-11-03 21:05  
marinich 
Частий відвідувач


З нами з: 05.03.11
Востаннє: 24.11.20
Повідомлень: 44

2018-11-04 09:39  
Інші сезони у такій якості будуть?
Anonymous 







2018-11-04 09:45  
marinich написано:
Інші сезони у такій якості будуть?

Мабуть будуть, але дата релізу навіть другого сезону на blu-ray ще невідома.

Electroz 
Відео Гуртом - підтримка та поширення
Відео Гуртом - підтримка та поширення


З нами з: 18.09.14
Востаннє: 25.11.20
Повідомлень: 4212

2018-11-04 12:37  
marinich написано:
Інші сезони у такій якості будуть?

До кінця вересня 2019 року планують всі сезони зробити в 1080p.

VIKTOtor 
Поважний учасник


З нами з: 02.01.12
Востаннє: 20.11.20
Повідомлень: 172

2018-11-05 11:39  
дякую, що хоч у hd родачах назву написано правильно
apollo90 
Новенький


З нами з: 10.02.14
Востаннє: 24.10.20
Повідомлень: 16

2018-11-08 09:21  
Це ж треба, оце я розумію якість. Так тримати! Ось і є стимул переглянути весь серіал. Дивився ще малим х.з коли)
volodyslav.tkacuk 
Новенький


З нами з: 11.03.17
Востаннє: 07.05.20
Повідомлень: 3

2019-07-26 17:25  
Там на НЛО ТБ транслюють вже другий сезон, хтось знає - озвучка стара чи нова???
zveruga 
Свій


З нами з: 28.07.08
Востаннє: 25.11.20
Повідомлень: 55

2019-07-26 22:47  
volodyslav.tkacuk
Стара звичайна озвучка 1+1

Anonymous 







2019-10-05 10:14  
Нібито 12 листопада виходить другий сезон на BluRay.
leicheman 
Відео Гуртом - фільмокрай
Відео Гуртом - фільмокрай


З нами з: 03.07.14
Востаннє: 25.11.20
Повідомлень: 5681

2019-10-05 10:35  
Anonymous написано:
Нібито 12 листопада виходить другий сезон на BluRay

маю 2-4 сезони з каналу сай -фай (ремастеринг)

VIKTOtor 
Поважний учасник


З нами з: 02.01.12
Востаннє: 20.11.20
Повідомлень: 172

2019-10-06 23:56  
leicheman

так НЛО ж наче теж ремайстер 4 сезони (а може й більше) транслював

Oxysims 
Новенький


З нами з: 07.11.16
Востаннє: 25.11.20
Повідомлень: 11

2019-12-14 14:39  
Мене цікавить чи буде на сайті 2 сезон в HD якості? Він вже є на російському трекері в якості 1080р «Рутрекер», але особисто я не можу дивитися серіал російською мовою.
Anonymous 







2019-12-14 15:59  
Oxysims
Цілком можливо, але найближчим часом чекати не варто.

marinich 
Частий відвідувач


З нами з: 05.03.11
Востаннє: 24.11.20
Повідомлень: 44

2020-04-18 10:40  
Вже є 2 сезон, чи будуть його викладати?
Anonymous 







2020-04-23 08:16  
marinich написано:
Вже є 2 сезон, чи будуть його викладати?

Рано чи пізно має бути...

rudder1992 
Поважний учасник


З нами з: 25.02.17
Востаннє: 25.11.20
Повідомлень: 187

2020-05-14 14:22  
Anonymous 







2020-05-17 17:47  
Ваш часовий пояс: GMT + 2 Години

Нова тема   Відповісти