Вікінги / Northmen - A Viking Saga (2014) Remux 1080p 2xUkr/Eng

Нові коментарі

Нова тема   Відповісти
Автор Повідомлення
staf777 
Відео Гуртом - підтримка та поширення
Відео Гуртом - підтримка та поширення


З нами з: 16.11.16
Востаннє: 01.10.20
Повідомлень: 4086

2018-11-03 11:29  
Вікінги / Northmen - A Viking Saga (2014) Remux 1080p 2xUkr/Eng
Вікінги / Northmen - A Viking Saga (2014) Remux 1080p 2xUkr/Eng


Жанр: екшн, пригодницький
Країна: Швейцарія, Німеччина, ПАР



Кінокомпанія: Elite Filmproduktion, Jumping Horse Film, Two Oceans Production (TOP)
Режисер: Клаудіо Фах / Claudio Fah
Актори: Джеймс Нортон / James Norton, Раян Квантен / Ryan Kwanten, Чарлі Мерфі / Charlie Murphy, Ед Скрейн / Ed Skrein, Том Гоппер / Tom Hopper, Лео Ґреґорі / Leo Gregory, Кен Дюкен / Ken Duken та інші

Сюжет:
У центрі сюжету – група вікінгів. Вони покинули рідні землі у пошуках кращого життя і були готові до того, що їм доведеться відстоювати своє право на життя зі зброєю в руках. Їхній човен затонув під час сильного шторму, але, переборовши стихію, воїни зуміли вибратися на сушу. На незнайомих землях героїв зустріли як ворогів. Першу битву вікінги виграли, не дивлячись на чисельну перевагу супротивника. Крім того, в полоні у них опинилася дочка місцевого короля. На пошуки непроханих гостей вирушають найкращі воїни королівства. За голови чужинців оголошено винагороду і тепер кожна зустріч вікінгів з місцевими вояками може стати останньою битвою в їхньому житті.


Тривалість: 01:37:49
Якість: Remux 1080p
Відео:
кодек:
розмір кадру: 1920х1080
бітрейт: 25.0 Mб/с

Аудіо # 1:
мова: українська
переклад: багатоголосий закадровий
кодек: 2.0
бітрейт: 192 кб/с

Аудіо # 2:
мова: українська
переклад: багатоголосий закадровий
кодек: 2.0
бітрейт: 192 кб/с

Аудіо # 3:
мова: англійська
переклад: оригінал
кодек: HD MA 5.1
бітрейт: 2513 кб/с
Info
General
Unique ID : 102374306266350754073946044868932240263 (0x4D0492FE9A3346BD13F91FF7DF0D8387)
Complete name : G:\Northmen - A Viking Saga (2014) Remux 1080p [2xUA][ENG][Hurtom].
Format :
Format version : Version 4 / Version 2
File size : 19.1 GiB
Duration : 1 h 37 min
Overall bit rate mode : Variable
Overall bit rate : 27.9 Mb/s
Movie name : Northmen - A Viking Saga (2014) Remux 1080p [2xUA][ENG][Hurtom]
Encoded date : UTC 2018-11-03 11:39:50
Writing application : v24.0.0 ('Beyond The Pale') 64-bit
Writing library : libebml v1.3.6 + v1.4.9
Cover : Yes
Attachments : cover.jpg

Video
ID : 1
Format : AVC
Format/Info : Advanced Video Codec
Format profile : [email protected]
Format settings : CABAC / 4 Ref Frames
Format settings, CABAC : Yes
Format settings, ReFrames : 4 frames
Codec ID : V_MPEG4/ISO/AVC
Duration : 1 h 37 min
Bit rate mode : Variable
Bit rate : 25.0 Mb/s
Maximum bit rate : 35.0 Mb/s
Width : 1 920 pixels
Height : 1 080 pixels
Display aspect ratio : 16:9
Frame rate mode : Constant
Frame rate : 24.000 FPS
Standard : NTSC
Color space : YUV
Chroma subsampling : 4:2:0
Bit depth : 8 bits
Scan type : Progressive
Bits/(Pixel*Frame) : 0.502
Stream size : 17.1 GiB (90%)
Language : English
Default : No
Forced : No
Color range : Limited
Color primaries : BT.709
Transfer characteristics : BT.709
Matrix coefficients : BT.709

Audio #1
ID : 2
Format : AC-3
Format/Info : Audio Coding 3
Codec ID : A_AC3
Duration : 1 h 37 min
Bit rate mode : Constant
Bit rate : 192 kb/s
Channel(s) : 2 channels
Channel positions : Front: L R
Sampling rate : 48.0 kHz
Frame rate : 31.250 FPS (1536 SPF)
Bit depth : 16 bits
Compression mode : Lossy
Stream size : 134 MiB (1%)
Title : [UA-LINE]
Language : Ukrainian
Service kind : Complete Main
Default : Yes
Forced : Yes

Audio #2
ID : 3
Format : AC-3
Format/Info : Audio Coding 3
Codec ID : A_AC3
Duration : 1 h 37 min
Bit rate mode : Constant
Bit rate : 192 kb/s
Channel(s) : 2 channels
Channel positions : Front: L R
Sampling rate : 48.0 kHz
Frame rate : 31.250 FPS (1536 SPF)
Bit depth : 16 bits
Compression mode : Lossy
Stream size : 134 MiB (1%)
Title : [UA-CINE]
Language : Ukrainian
Service kind : Complete Main
Default : No
Forced : No

Audio #3
ID : 4
Format :
Format/Info : Digital Theater Systems
Format profile : MA / Core
Codec ID : A_DTS
Duration : 1 h 37 min
Bit rate mode : Variable / Constant
Bit rate : 2 513 kb/s / 1 509 kb/s
Channel(s) : 6 channels
Channel positions : Front: L C R, Side: L R, LFE
Sampling rate : 48.0 kHz
Frame rate : 93.750 FPS (512 SPF)
Bit depth : 16 bits
Compression mode : Lossless / Lossy
Stream size : 1.72 GiB (9%)
Language : English
Default : No
Forced : No

Menu
00:00:00.000 : en:Chapter 01
00:06:56.375 : en:Chapter 02
00:14:59.833 : en:Chapter 03
00:23:58.333 : en:Chapter 04
00:31:54.416 : en:Chapter 05
00:38:09.125 : en:Chapter 06
00:48:29.250 : en:Chapter 07
00:54:09.833 : en:Chapter 08
01:02:33.500 : en:Chapter 09
01:09:49.916 : en:Chapter 10
01:18:46.041 : en:Chapter 11
01:27:46.791 : en:Chapter 12







За українську доріжку №1 подяка п. patriot2305
За запис звуку з каналу CINE+ дякуємо пану Sando7
За зведення звуку дякую пану drop_plz
За допомогу в створенні реліза дякую пану drop_plz
Джерело: &
Особиста оцінка: 0 - не дивився
Вікінги / Northmen - A Viking Saga (2014) Remux 1080p 2xUkr/Eng
Вікінги / Northmen - A Viking Saga (2014) Remux 1080p 2xUkr/Eng


Золотий реліз (завантажене не впливає на рейтинг)
 Трекер:    Зареєстрований   

Завантажити / скачати фільм українською



відео для новачків



 Зареєстрований:   2018-11-03 16:31
 Розмір:   19.06 GB 
 Оцінка фільму:   9.1/10 (Голосів: 14)
   
Інші релізи
   Вікінги / Northmen - A Viking Saga (2014) 1080p 2xUkr/Eng | Sub Eng Timm  2 / 0   9.79 GB   2020-05-01 17:35 
   Вікінги / Northmen - A Viking Saga (2014) 720p 2xUkr/Eng | Sub Eng 11FrYkT  1 / 0   4 GB   2019-02-12 17:32 
   Вікінги / Northmen - A Viking Saga (2014) AVC 2xUkr/Eng | Sub Eng drop_plz  2 / 0   2.13 GB   2018-11-03 09:00 
   Вікінги / Northmen - A Viking Saga (2014) patriot2305  3 / 0   1.45 GB   2015-02-23 16:53 
bot 
робот


З нами з: 30.09.07
Востаннє: 26.05.05
Повідомлень: 25680

2018-11-03 16:31  
Тему перенесено з Анонси релізів до форуму Фільми в HD


staf777

Ваш часовий пояс: GMT + 2 Години

Нова тема   Відповісти