Том і Джеррі: загублений дракон / Tom and Jerry: The Lost Dragon (2014) AVC

Нові коментарі

Нова тема   Відповісти
Автор Повідомлення
sergiyko.5 
Забанено
Забанено


З нами з: 25.02.16
Востаннє: 29.10.20
Повідомлень: 3651

2018-11-02 22:52  
Том і Джеррі: загублений дракон / Tom and Jerry: The Lost Dragon (2014) AVC


Том і Джеррі: загублений дракон / Tom and Jerry: The Lost Dragon (2014) AVC

Жанр: пригоди, комедія
Країна: США
Режисер: Спайк Брандт(Spike Brandt), Тоні Червоне(Tony Cervone)
Ролі озвучували: Келлі Стейблз, Віккі Льюіс, Джим Каммінгс, Лорейн Ньюмен, Вуейн Найт

Опис: Улюблена парочка - кіт і миша повернулись в цій чарівній казці! А разом з ними - і пісні, веселощі і магія. Пригоди наших героїв починаються з того, що вони знаходять дивне яйце, яке було вкрадено у величезного вогнедишного дракона! Незабаром з яйця вилуплюється малюк Паффі і вирішує, що Том - це його мама. Справжня мама-дракониха хоче повернути свого дракончіка, але не вона одна - за малюком полює відьма Дрізельда!

За допомогою чарівних союзників і звірів Тому і Джеррі належить зупинити відьму і повернути дитинча його мамі. Вас чекає магія, битви і, звичайно ж, море веселощів! Чи зможуть друзі допомогти героям цієї казки, чи буде у неї щасливий фінал? Рушайте в захоплюючу подорож всією родиною і самі дізнаєтеся!




Тривалість: 56:40
Якість:

Відео: кодек: розмір кадру: 1024 x 576 бітрейт: 2000 кб/с
Аудіо: мова: українська переклад: багатоголосий закадровий кодек: 2.0 бітрейт: 192 кб/с
Озвучення:
Інформація про файл:
General
Unique ID : 293274052130736248740978334855120924065 (0xDCA28723DDF2FB3CA53351133EEDADA1)
Complete name : G:\Torrents2\MULT\Tom.and.Jerry.The.Lost.Dragon.2014..
Format :
Format version : Version 4
File size : 893 MiB
Duration : 56 min 41 s
Overall bit rate : 2 202 kb/s
Movie name : Tom and Jerry The Lost Dragon 2014 by sergiyko
Encoded date : UTC 2018-11-04 13:18:21
Writing application : v28.1.0 ('Morning Child') 64-bit
Writing library : libebml v1.3.6 + v1.4.9
Cover : Yes
Attachments : cover.jpg

Video
ID : 1
Format : AVC
Format/Info : Advanced Video Codec
Format profile : [email protected]
Format settings : CABAC / 8 Ref Frames
Format settings, CABAC : Yes
Format settings, ReFrames : 8 frames
Codec ID : V_MPEG4/ISO/AVC
Duration : 56 min 40 s
Bit rate : 2 008 kb/s
Width : 1 024 pixels
Height : 576 pixels
Display aspect ratio : 16:9
Frame rate mode : Constant
Frame rate : 23.976 (24000/1001) FPS
Color space : YUV
Chroma subsampling : 4:2:0
Bit depth : 8 bits
Scan type : Progressive
Bits/(Pixel*Frame) : 0.142
Stream size : 814 MiB (91%)
Title : Tom and Jerry The Lost Dragon
Writing library : core 138 r2358 9e941d1
Encoding settings : cabac=1 / ref=8 / deblock=1:-1:-1 / analyse=0x3:0x133 / me=umh / subme=9 / psy=1 / psy_rd=1.00:0.10 / mixed_ref=1 / me_range=24 / chroma_me=1 / trellis=2 / 8x8dct=1 / cqm=0 / deadzone=21,11 / fast_pskip=0 / chroma_qp_offset=-3 / threads=4 / lookahead_threads=1 / sliced_threads=0 / nr=0 / decimate=1 / interlaced=0 / bluray_compat=0 / constrained_intra=0 / bframes=8 / b_pyramid=2 / b_adapt=1 / b_bias=0 / direct=3 / weightb=1 / open_gop=0 / weightp=2 / keyint=240 / keyint_min=23 / scenecut=40 / intra_refresh=0 / rc_lookahead=40 / rc=2pass / mbtree=1 / bitrate=2008 / ratetol=1.0 / qcomp=0.60 / qpmin=0 / qpmax=69 / qpstep=4 / cplxblur=20.0 / qblur=0.5 / ip_ratio=1.40 / aq=1:1.00
Language : English
Default : Yes
Forced : No

Audio
ID : 2
Format : AC-3
Format/Info : Audio Coding 3
Commercial name : Dolby Digital
Codec ID : A_AC3
Duration : 56 min 41 s
Bit rate mode : Constant
Bit rate : 192 kb/s
Channel(s) : 2 channels
Channel layout : L R
Sampling rate : 48.0 kHz
Frame rate : 31.250 FPS (1536 SPF)
Bit depth : 16 bits
Compression mode : Lossy
Stream size : 77.9 MiB (9%)
Title : MOV | Новий канал
Language : Ukrainian
Service kind : Complete Main
Default : Yes
Forced : No

Menu
00:00:00.000 : en:00:00:00.000
00:10:44.269 : en:00:10:44.269
00:18:27.023 : en:00:18:27.023
00:27:48.667 : en:00:27:48.667
00:38:25.053 : en:00:38:25.053
00:49:43.522 : en:00:49:43.522
00:53:39.049 : en:00:53:39.049
Скріншоти:



Запис/зведення: sergiyko


 Трекер:    Зареєстрований   

Завантажити / скачати мультфільм українською



відео для новачків



 Зареєстрований:   2018-11-04 15:40
 Розмір:   893 MB 
 Оцінка мультфільму:   9.5/10 (Голосів: 20)
   
bot 
робот


З нами з: 30.09.07
Востаннє: 26.05.05
Повідомлень: 26026

2018-11-02 22:53  
Тему перенесено з Мультфільми до форуму Анонси релізів


sergiyko.5

bot 
робот


З нами з: 30.09.07
Востаннє: 26.05.05
Повідомлень: 26026

2018-11-04 15:39  
Тему перенесено з Анонси релізів до форуму Мультфільми


sergiyko.5

Djohnnikey 
VIP


З нами з: 01.10.15
Востаннє: 31.10.20
Повідомлень: 423

2019-04-09 14:51  
Доволі цікава та не зовсім стандартна історія про Тома, Джері та перефарбованого Пумбу. Щоправда дещо незрозуміло що стало першоджерелом вигнання тітці головної героїні - вона щось наробила (а, якщо так, то раптово чи навмисне), чи просто до неї, як до створіння (там же, власне, не люди) з іншим кольором шкіри просто ставилися упереджено й їй набридло?
8 з 10.

eXteSy- 
VIP


З нами з: 06.04.09
Востаннє: 01.11.20
Повідомлень: 2200

2020-04-21 21:37  
Одна з кращих повнометражок про Тома і Джеррі. Чудова мальовка, гарний сюжет, вдосталь гумору.
9/10

P.S. Є епізод ще і після титрів.

Ваш часовий пояс: GMT + 2 Години

Нова тема   Відповісти