Том і Джеррі: загублений дракон / Tom and Jerry: The Lost Dragon (2014) 1080p Ukr/Eng | Sub Eng

Нові коментарі

Нова тема   Відповісти
Автор Повідомлення
sergiyko.5 
VIP


З нами з: 25.02.16
Востаннє: 28.02.20
Повідомлень: 2957

2018-11-02 22:51  
Том і Джеррі: загублений дракон / Tom and Jerry: The Lost Dragon (2014) 1080p Ukr/Eng | Sub Eng


Том і Джеррі: загублений дракон / Tom and Jerry: The Lost Dragon (2014) 1080p Ukr/Eng | Sub Eng

Жанр: пригоди, комедія
Країна: США
Режисер: Спайк Брандт(Spike Brandt), Тоні Червоне(Tony Cervone)
Ролі озвучували: Келлі Стейблз, Віккі Льюіс, Джим Каммінгс, Лорейн Ньюмен, Вуейн Найт

Опис: Улюблена парочка - кіт і миша повернулись в цій чарівній казці! А разом з ними - і пісні, веселощі і магія. Пригоди наших героїв починаються з того, що вони знаходять дивне яйце, яке було вкрадено у величезного вогнедишного дракона! Незабаром з яйця вилуплюється малюк Паффі і вирішує, що Том - це його мама. Справжня мама-дракониха хоче повернути свого дракончіка, але не вона одна - за малюком полює відьма Дрізельда!

За допомогою чарівних союзників і звірів Тому і Джеррі належить зупинити відьму і повернути дитинча його мамі. Вас чекає магія, битви і, звичайно ж, море веселощів! Чи зможуть друзі допомогти героям цієї казки, чи буде у неї щасливий фінал? Рушайте в захоплюючу подорож всією родиною і самі дізнаєтеся!




Тривалість: 56:41
Якість:

Відео: кодек: розмір кадру: 1920 x 1080 бітрейт: 8500 кб/с
Аудіо #1: мова: українська переклад: багатоголосий закадровий кодек: 2.0 бітрейт: 192 кб/с
Озвучення:
Аудіо #2: мова: англійська переклад: оригінал кодек: 5.1 бітрейт: 640 кб/с
Субтитри: мова: англійська тип: програмні (м’які) формат: *.srt
Інформація про файл:
General
Unique ID : 188596669737619634723372717504262433431 (0x8DE265B9C6314441ADD5B420F5CDEA97)
Complete name : G:\Torrents2\MULT\Tom.and.Jerry.The.Lost.Dragon.2014.1080p..
Format :
Format version : Version 4
File size : 3.70 GiB
Duration : 56 min 41 s
Overall bit rate : 9 338 kb/s
Movie name : Tom and Jerry The Lost Dragon 2014 by sergiyko
Encoded date : UTC 2018-11-04 13:00:59
Writing application : v28.1.0 ('Morning Child') 64-bit
Writing library : libebml v1.3.6 + v1.4.9
Cover : Yes
Attachments : cover.jpg

Video
ID : 1
Format : AVC
Format/Info : Advanced Video Codec
Format profile : [email protected]
Format settings : CABAC / 4 Ref Frames
Format settings, CABAC : Yes
Format settings, ReFrames : 4 frames
Codec ID : V_MPEG4/ISO/AVC
Duration : 56 min 40 s
Bit rate : 8 505 kb/s
Width : 1 920 pixels
Height : 1 080 pixels
Display aspect ratio : 16:9
Frame rate mode : Constant
Frame rate : 23.976 (24000/1001) FPS
Color space : YUV
Chroma subsampling : 4:2:0
Bit depth : 8 bits
Scan type : Progressive
Bits/(Pixel*Frame) : 0.171
Stream size : 3.37 GiB (91%)
Title : Tom and Jerry The Lost Dragon
Writing library : core 142 r2479kMod dd79a61
Encoding settings : cabac=1 / ref=4 / deblock=1:-3:-3 / analyse=0x3:0x133 / me=umh / subme=10 / psy=1 / fade_compensate=0.00 / psy_rd=1.00:0.00 / mixed_ref=1 / me_range=24 / chroma_me=1 / trellis=2 / 8x8dct=1 / cqm=0 / deadzone=21,11 / fast_pskip=0 / chroma_qp_offset=-2 / threads=6 / lookahead_threads=1 / sliced_threads=0 / nr=0 / decimate=0 / interlaced=0 / bluray_compat=0 / constrained_intra=0 / fgo=0 / bframes=9 / b_pyramid=2 / b_adapt=2 / b_bias=0 / direct=3 / weightb=1 / open_gop=0 / weightp=2 / keyint=250 / keyint_min=23 / scenecut=40 / intra_refresh=0 / rc=crf / mbtree=0 / crf=16.0000 / qcomp=0.60 / qpmin=0 / qpmax=69 / qpstep=4 / ip_ratio=1.40 / pb_ratio=1.30 / aq=1:1.00
Language : English
Default : Yes
Forced : No

Audio #1
ID : 2
Format : AC-3
Format/Info : Audio Coding 3
Commercial name : Dolby Digital
Codec ID : A_AC3
Duration : 56 min 41 s
Bit rate mode : Constant
Bit rate : 192 kb/s
Channel(s) : 2 channels
Channel layout : L R
Sampling rate : 48.0 kHz
Frame rate : 31.250 FPS (1536 SPF)
Bit depth : 16 bits
Compression mode : Lossy
Stream size : 77.9 MiB (2%)
Title : MOV | Новий канал
Language : Ukrainian
Service kind : Complete Main
Default : Yes
Forced : Yes

Audio #2
ID : 3
Format : AC-3
Format/Info : Audio Coding 3
Commercial name : Dolby Digital
Codec ID : A_AC3
Duration : 56 min 41 s
Bit rate mode : Constant
Bit rate : 640 kb/s
Channel(s) : 6 channels
Channel layout : L R C LFE Ls Rs
Sampling rate : 48.0 kHz
Frame rate : 31.250 FPS (1536 SPF)
Bit depth : 16 bits
Compression mode : Lossy
Stream size : 260 MiB (7%)
Title : Original
Language : English
Service kind : Complete Main
Default : No
Forced : No

Text
ID : 4
Format : UTF-8
Codec ID : S_TEXT/UTF8
Codec ID/Info : UTF-8 Plain Text
Duration : 56 min 22 s
Bit rate : 33 b/s
Count of elements : 430
Stream size : 13.8 KiB (0%)
Language : English
Default : No
Forced : No

Menu
00:00:00.000 : en:00:00:00.000
00:10:44.269 : en:00:10:44.269
00:18:27.023 : en:00:18:27.023
00:27:48.667 : en:00:27:48.667
00:38:25.053 : en:00:38:25.053
00:49:43.522 : en:00:49:43.522
00:53:39.049 : en:00:53:39.049
Скріншоти:



Запис/зведення: sergiyko


 Трекер:    Зареєстрований   

Завантажити / скачати мультфільм українською



відео для новачків



 Зареєстрований:   2018-11-04 15:15
 Розмір:   3.7 GB 
 Оцінка мультфільму:   10/10 (Голосів: 7)
   
bot 
робот


З нами з: 30.09.07
Востаннє: 26.05.05
Повідомлень: 23395

2018-11-02 22:51  
Тему перенесено з Мультфільми в HD до форуму Анонси релізів


sergiyko.5

bot 
робот


З нами з: 30.09.07
Востаннє: 26.05.05
Повідомлень: 23395

2018-11-04 15:15  
Тему перенесено з Анонси релізів до форуму Мультфільми в HD


sergiyko.5

sergiyko.5 
VIP


З нами з: 25.02.16
Востаннє: 28.02.20
Повідомлень: 2957

2018-11-04 15:56  
Якщо потрібен Remux (9Гб), напишіть, але роздавати довго не зможу.
Ваш часовий пояс: GMT + 2 Години

Нова тема   Відповісти