Розкажи мені казку (Сезон 1) / Tell Me a Story (Season 1) (2018)

Нові коментарі

Нова тема   Відповісти
Автор Повідомлення
DniproFilm 
VIP


З нами з: 10.10.18
Востаннє: 16.01.19
Повідомлень: 269

2018-11-02 21:45  
Розкажи мені казку (Сезон 1) / Tell Me a Story (Season 1) (2018)

Розкажи мені казку (Сезон 1) / Tell Me a Story (Season 1) (2018)


Жанр: трилер
Країна: США



Кінокомпанія / телеканал: CBS
Режисер: Ліз Фрідлендер, Солван Наїм, Джон Скотт
Актори/ролі озвучують: Кріс Брочу, Остін Роберт Батлер, Даніель Кемпбелл, Кім Кетролл, Забріна Гевара, Сем Джагер, Стерлінг Найт, Біллі Магнуссен та інші

Сюжет:
Найвідоміші в світі казки в сучасному перекладенні. Дія чарівних історій про Червону Шапочку, трьох поросят і багатьох інших перенесено в сучасний Нью-Йорк.


Тривалість: 1 серія: ~ 52 хв. (цілком серій: 10)
Перелік серій

1. Chapter 1: Hope
2. Chapter 2: Loss
3. Chapter 3: Greed
4. Chapter 4: Rage
5. Chapter 5: Madness
6. Chapter 6: Guilt
7. Chapter 7: Betrayal
8. Chapter 8: Truth
9. Chapter 9: Deception
10. Chapter 10: Forgiveness
Якість:
Відео:
кодек:
розмір кадру: 720x300
бітрейт: ~1800 кб/с

Аудіо # 1:
мова: українська
переклад: багатоголосий закадровий
кодек: 5.1
бітрейт: 384 кб/с

Джерело озвучення:
DniproFilm
Info

Video
ID : 0
Format : MPEG-4 Visual
Format profile : Advanced [email protected]
Format settings : BVOP2
Format settings, BVOP : 2
Format settings, QPel : No
Format settings, GMC : No warppoints
Format settings, Matrix : Default (H.263)
Muxing mode : Packed bitstream
Codec ID :
Codec ID/Hint :
Duration : 51 min 25 s
Bit rate : 1 748 kb/s
Width : 720 pixels
Height : 300 pixels
Display aspect ratio : 2.40:1
Frame rate : 23.976 (24000/1001) FPS
Color space : YUV
Chroma subsampling : 4:2:0
Bit depth : 8 bits
Scan type : Progressive
Compression mode : Lossy
Bits/(Pixel*Frame) : 0.338
Stream size : 643 MiB (82%)
Writing library : 67

Audio
ID : 1
Format : AC-3
Format/Info : Audio Coding 3
Commercial name : Dolby Digital
Codec ID : 2000
Duration : 51 min 25 s
Bit rate mode : Constant
Bit rate : 384 kb/s
Channel(s) : 6 channels
Channel positions : Front: L C R, Side: L R, LFE
Sampling rate : 48.0 kHz
Frame rate : 31.250 FPS (1536 SPF)
Bit depth : 16 bits
Compression mode : Lossy
Stream size : 141 MiB (18%)
Alignment : Aligned on interleaves
Interleave, duration : 42 ms (1.00 video frame)
Interleave, preload duratio : 512 ms
Service kind : Complete Main
Скріншоти

Увага, присутня відео та аудіореклама.


Джерело: DniproFilm



Авторський реліз (завантажувати можна без реєстрації)
 Трекер:    Зареєстрований   

Завантажити / скачати серіал українською



відео для новачків



 Зареєстрований:   2019-01-09 23:00
 Розмір:   6.8 GB 
 Оцінка серіалу:   7.2/10 (Голосів: 19)
   
Dark Invader 
Модератор відео


З нами з: 06.01.11
Востаннє: 16.01.19
Повідомлень: 2488

2018-11-03 01:46  
DniproFilm написано:

Width : 720 pixels
Height : 360 pixels

Судячи із скріншотів і опису має бути 720 х 300.

Додайте правильний звіт МедіаІнфо.

tpolit 
VIP


З нами з: 10.01.15
Востаннє: 16.01.19
Повідомлень: 380

2018-11-03 18:25  
Після перегляду першої серії видалив торент, щоб не бути причетним до роздачі цього "креативу". Першою думкою було - зайти на толоку і написати відгук про те, яке лайно я щойно подивився. 2 з 10.
Iridium 
Частий відвідувач


З нами з: 20.12.09
Востаннє: 15.01.19
Повідомлень: 46

2018-11-03 20:19  
серіал точно на любителя, бо сюжет важкуватий для серіальної подачі. і це не трилер, а скоріше драма.

а от реклама просто посередині неабияк дратує. і те, що рекламують розводняк, також дратує.

DniproFilm 
VIP


З нами з: 10.10.18
Востаннє: 16.01.19
Повідомлень: 269

2018-11-03 22:05  
УВАГА! РЕЛІЗ ОНОВЛЕНО! (03.11.2018)
ДОДАНО 1 СЕРІЮ У ПРАВИЛЬНОМУ ФОРМАТІ!


Додано через 42 секунди:

Додано правильний звіт МедіаІнфо.

don pedro 
Попереджень: 1
Попереджень: 1 


З нами з: 29.06.11
Востаннє: 16.01.19
Повідомлень: 12813

2018-11-04 18:59  
До чого цей набір різних історій у першій серії - взагалі незрозуміло. До купи не в`яжеться. Хіба що все зведуть разом у наступних сезонах. Друге, що незрозуміло - для чого нам в Україні ця цілком американська історія з Трампом, зброєю та рештою байди. Для озвучення є повно серіалів зі значно притомнішим і більш вселюдським сюжетом.
SrGr 
Свій


З нами з: 15.01.12
Востаннє: 16.01.19
Повідомлень: 59

2018-11-04 20:41  
Щось там зі звуком у сцені в нічному клубі. А так - нормальний початок серіалу.

don pedro написано:
для чого нам в Україні ця цілком американська історія з Трампом, зброєю та рештою байди

Цей серіал тут: Толока » Відео » Українське озвучення »
А Вам, мабуть, сюди: Толока » Відео » Українське кіно »

sinpavla 
Свій


З нами з: 15.06.12
Востаннє: 16.01.19
Повідомлень: 89

2018-12-10 07:10  
красно дякую
vepr91 
Новенький


З нами з: 15.10.11
Востаннє: 15.01.19
Повідомлень: 23

2018-12-21 09:16  
крутий серіал. Як добре, що я мусив його дивитись, а то після першої серії також би дропнув
nataliksa 
Частий відвідувач


З нами з: 18.04.14
Востаннє: 15.01.19
Повідомлень: 32

2018-12-28 16:58  
Класний серіал! Давно такого екшну не було.
ced 
Свій


З нами з: 11.02.17
Востаннє: 16.01.19
Повідомлень: 80

2018-12-30 12:05  
Весело, цікаво, страшно, повчально! Схоже фінал не розчарує, у 9-ї серії рейтинг IMDB 9.2, 10-та вийде 3 січня.
don pedro 
Попереджень: 1
Попереджень: 1 


З нами з: 29.06.11
Востаннє: 16.01.19
Повідомлень: 12813

2018-12-30 12:07  
Змінив свою початкову думку. На диво якісний детективний серіал, де всі лінії оповіді поступово зводяться до спільного знаменника.
DniproFilm 
VIP


З нами з: 10.10.18
Востаннє: 16.01.19
Повідомлень: 269

2019-01-09 23:02  
УВАГА! РЕЛІЗ ОНОВЛЕНО! (09.01.2019) Додано 9-10 серії (фінал сезону).

AnnaBogdan 
Свій


З нами з: 16.10.16
Востаннє: 13.01.19
Повідомлень: 91

2019-01-10 14:23  
серіал має лише один сезон, що складається з 10 епізодів. спочатку було відчуття: "Що я дивлюся?", та з кожною новою серією затягувало все більше. знято за сюжетом трьох казок: троє поросят, червона шапочка та гензель і гретель; всі вони пов*язані між собою. моя оцінка 8/10: сюжет цікавий, тримає в напрузі, сподобалось.
gepard 
VIP


З нами з: 10.02.10
Востаннє: 16.01.19
Повідомлень: 310

2019-01-14 15:31  
Серіал сподобався.
Ваш часовий пояс: GMT + 2 Години

Нова тема   Відповісти