Розкажи мені казку (Сезон 1, серії 1-2) / Tell Me a Story (Season 1, episodes 1-2) (2018)

Нові коментарі

Нова тема   Відповісти
Автор Повідомлення
DniproFilm 
Частий відвідувач


З нами з: 10.10.18
Востаннє: 13.11.18
Повідомлень: 40

2018-11-02 21:45  
Розкажи мені казку (Сезон 1, серії 1-2) / Tell Me a Story (Season 1, episodes 1-2) (2018)

Розкажи мені казку (Сезон 1, серії 1-2) / Tell Me a Story (Season 1, episodes 1-2) (2018)


Жанр: трилер
Країна: США



Кінокомпанія / телеканал: CBS
Режисер: Ліз Фрідлендер, Солван Наїм, Джон Скотт
Актори/ролі озвучують: Кріс Брочу, Остін Роберт Батлер, Даніель Кемпбелл, Кім Кетролл, Забріна Гевара, Сем Джагер, Стерлінг Найт, Біллі Магнуссен та інші

Сюжет:
Найвідоміші в світі казки в сучасному перекладенні. Дія чарівних історій про Червону Шапочку, трьох поросят і багатьох інших перенесено в сучасний Нью-Йорк.


Тривалість: 1 серія: ~ 52 хв. (цілком серій: 10)
Перелік серій

1. Chapter 1: Hope
1. Chapter 2: Loss
Якість:
Відео:
кодек:
розмір кадру: 720x300
бітрейт: ~1800 кб/с

Аудіо # 1:
мова: українська
переклад: багатоголосий закадровий
кодек: 5.1
бітрейт: 384 кб/с

Джерело озвучення:
DniproFilm
Info

Video
ID : 0
Format : MPEG-4 Visual
Format profile : Advanced [email protected]
Format settings : BVOP2
Format settings, BVOP : 2
Format settings, QPel : No
Format settings, GMC : No warppoints
Format settings, Matrix : Default (H.263)
Muxing mode : Packed bitstream
Codec ID :
Codec ID/Hint :
Duration : 51 min 25 s
Bit rate : 1 748 kb/s
Width : 720 pixels
Height : 300 pixels
Display aspect ratio : 2.40:1
Frame rate : 23.976 (24000/1001) FPS
Color space : YUV
Chroma subsampling : 4:2:0
Bit depth : 8 bits
Scan type : Progressive
Compression mode : Lossy
Bits/(Pixel*Frame) : 0.338
Stream size : 643 MiB (82%)
Writing library : 67

Audio
ID : 1
Format : AC-3
Format/Info : Audio Coding 3
Commercial name : Dolby Digital
Codec ID : 2000
Duration : 51 min 25 s
Bit rate mode : Constant
Bit rate : 384 kb/s
Channel(s) : 6 channels
Channel positions : Front: L C R, Side: L R, LFE
Sampling rate : 48.0 kHz
Frame rate : 31.250 FPS (1536 SPF)
Bit depth : 16 bits
Compression mode : Lossy
Stream size : 141 MiB (18%)
Alignment : Aligned on interleaves
Interleave, duration : 42 ms (1.00 video frame)
Interleave, preload duratio : 512 ms
Service kind : Complete Main
Скріншоти

Увага, присутня відео та аудіореклама.

Додана 2 серія.


Джерело: DniproFilm


Авторський реліз (завантажувати можна без реєстрації)
 Трекер:    Зареєстрований   

Завантажити / скачати серіал українською



відео для новачків



 Зареєстрований:   2018-11-09 21:13
 Розмір:   1.48 GB 
 Оцінка серіалу:   7.3/10 (Голосів: 7)
   
Dark Invader 
Модератор відео


З нами з: 06.01.11
Востаннє: 14.11.18
Повідомлень: 2456

2018-11-03 01:46  
DniproFilm написано:

Width : 720 pixels
Height : 360 pixels

Судячи із скріншотів і опису має бути 720 х 300.

Додайте правильний звіт МедіаІнфо.

tpolit 
VIP


З нами з: 10.01.15
Востаннє: 12.11.18
Повідомлень: 357

2018-11-03 18:25  
Після перегляду першої серії видалив торент, щоб не бути причетним до роздачі цього "креативу". Першою думкою було - зайти на толоку і написати відгук про те, яке лайно я щойно подивився. 2 з 10.
Iridium 
Частий відвідувач


З нами з: 20.12.09
Востаннє: 14.11.18
Повідомлень: 43

2018-11-03 20:19  
серіал точно на любителя, бо сюжет важкуватий для серіальної подачі. і це не трилер, а скоріше драма.

а от реклама просто посередині неабияк дратує. і те, що рекламують розводняк, також дратує.

DniproFilm 
Частий відвідувач


З нами з: 10.10.18
Востаннє: 13.11.18
Повідомлень: 40

2018-11-03 22:05  
УВАГА! РЕЛІЗ ОНОВЛЕНО! (03.11.2018)
ДОДАНА 1 СЕРІЯ У ПРАВИЛЬНОМУ ФОРМАТІ!


Додано через 42 секунди:

Додано правильний звіт МедіаІнфо.

don pedro 
Попереджень: 1
Попереджень: 1 


З нами з: 29.06.11
Востаннє: 14.11.18
Повідомлень: 12555

2018-11-04 18:59  
До чого цей набір різних історій у першій серії - взагалі незрозуміло. До купи не в`яжеться. Хіба що все зведуть разом у наступних сезонах. Друге, що незрозуміло - для чого нам в Україні ця цілком американська історія з Трампом, зброєю та рештою байди. Для озвучення є повно серіалів зі значно притомнішим і більш вселюдським сюжетом.
SrGr 
Свій


З нами з: 15.01.12
Востаннє: 14.11.18
Повідомлень: 56

2018-11-04 20:41  
Щось там зі звуком у сцені в нічному клубі. А так - нормальний початок серіалу.

don pedro написано:
для чого нам в Україні ця цілком американська історія з Трампом, зброєю та рештою байди

Цей серіал тут: Толока » Відео » Українське озвучення »
А Вам, мабуть, сюди: Толока » Відео » Українське кіно »

Ваш часовий пояс: GMT + 2 Години

Нова тема   Відповісти