Розкажи мені казку (Сезон 1, серії 1-6) / Tell Me a Story (Season 1, episodes 1-6) (2018) 1080p Ukr/Eng

Нові коментарі

Нова тема   Відповісти
Автор Повідомлення
DniproFilm 
Свій


З нами з: 10.10.18
Востаннє: 10.12.18
Повідомлень: 141

2018-11-02 21:45  
Розкажи мені казку (Сезон 1, серії 1-6) / Tell Me a Story (Season 1, episodes 1-6) (2018) 1080p Ukr/Eng

Розкажи мені казку (Сезон 1, серії 1-6) / Tell Me a Story (Season 1, episodes 1-6) (2018) 1080p Ukr/Eng


Жанр: трилер
Країна: США



Кінокомпанія / телеканал: CBS
Режисер: Ліз Фрідлендер, Солван Наїм, Джон Скотт
Актори/ролі озвучують: Кріс Брочу, Остін Роберт Батлер, Даніель Кемпбелл, Кім Кетролл, Забріна Гевара, Сем Джагер, Стерлінг Найт, Біллі Магнуссен та інші

Сюжет:
Найвідоміші в світі казки в сучасному перекладенні. Дія чарівних історій про Червону Шапочку, трьох поросят і багатьох інших перенесено в сучасний Нью-Йорк.


Тривалість: 1 серія: ~ 52 хв. (цілком серій: 10)
Перелік серій

1. Chapter 1: Hope
2. Chapter 2: Loss
3. Chapter 3: Greed
4. Chapter 4: Rage
5. Chapter 5: Madness
6. Chapter 6: Guilt
7. Chapter 7: ...
8. Chapter 8: ...
9. Chapter 9: ...
10. Chapter 10: ...
Якість:
Відео:
кодек:
розмір кадру: 1920x800
бітрейт: ~7000 кб/с

Аудіо # 1:
мова: українська
переклад: багатоголосий закадровий
кодек: 5.1
бітрейт: 384 кб/с

Аудіо # 2:
мова: англійська
переклад: оригінал
кодек: 5.1
бітрейт: 640 кб/с

Джерело озвучення:
DniproFilm
Info

Video
ID : 1
Format : AVC
Format/Info : Advanced Video Codec
Format profile : [email protected]
Format settings : CABAC / 4 Ref Frames
Format settings, CABAC : Yes
Format settings, ReFrames : 4 frames
Codec ID : V_MPEG4/ISO/AVC
Duration : 51 min 25 s
Bit rate : 6 833 kb/s
Width : 1 920 pixels
Height : 800 pixels
Display aspect ratio : 2.40:1
Frame rate mode : Constant
Frame rate : 23.976 (24000/1001) FPS
Standard : NTSC
Color space : YUV
Chroma subsampling : 4:2:0
Bit depth : 8 bits
Scan type : Progressive
Bits/(Pixel*Frame) : 0.186
Stream size : 2.45 GiB (87%)
Language : English
Default : Yes
Forced : No
Color range : Limited
Color primaries : BT.709
Transfer characteristics : BT.709
Matrix coefficients : BT.709

Audio #1
ID : 2
Format : AC-3
Format/Info : Audio Coding 3
Commercial name : Dolby Digital
Codec ID : A_AC3
Duration : 51 min 25 s
Bit rate mode : Constant
Bit rate : 384 kb/s
Channel(s) : 6 channels
Channel positions : Front: L C R, Side: L R, LFE
Sampling rate : 48.0 kHz
Frame rate : 31.250 FPS (1536 SPF)
Bit depth : 16 bits
Compression mode : Lossy
Stream size : 141 MiB (5%)
Title : DniproFilm
Language : Ukrainian
Service kind : Complete Main
Default : Yes
Forced : No

Audio #2
ID : 3
Format : AC-3
Format/Info : Audio Coding 3
Codec ID : A_AC3
Duration : 50 min 54 s
Bit rate : 640 kb/s
Channel(s) : 6 channels
Sampling rate : 48.0 kHz
Frame rate : 31.250 FPS (1536 SPF)
Compression mode : Lossy
Stream size : 233 MiB (8%)
Language : English
Default : No
Forced : No
Скріншоти

Увага, присутня відео та аудіореклама.

Додано 6 серію.


Джерело: DniproFilm



Авторський реліз (завантажувати можна без реєстрації)
 Трекер:    Зареєстрований   

Завантажити / скачати серіал українською



відео для новачків



 Зареєстрований:   2018-12-07 12:35
 Розмір:   16.23 GB 
 Оцінка серіалу:   8.4/10 (Голосів: 7)
   
Electroz 
Відео Гуртом - підтримка та поширення
Відео Гуртом - підтримка та поширення


З нами з: 18.09.14
Востаннє: 10.12.18
Повідомлень: 3170

2018-11-02 21:48  
DniproFilm написано:
Tell Me a Story

Поправте посилання на кнопку imdb https://www.imdb.com/title/tt7695916/

DniproFilm 
Свій


З нами з: 10.10.18
Востаннє: 10.12.18
Повідомлень: 141

2018-11-02 21:55  
Electroz
Зроблено, дякую. Щось ми сьогодні не в формі Happy
Мабуть бурі магнітні...

Sexy_Beast 
Новенький


З нами з: 18.02.17
Востаннє: 10.12.18
Повідомлень: 22

2018-11-11 19:23  
Відпишіться, хто вже дивився, чи вартий уваги?? Дякую.
Igormeta 
Новенький


З нами з: 31.10.16
Востаннє: 06.12.18
Повідомлень: 6

2018-11-13 22:54  
Мене зацікавив. Варто дивитись.
DniproFilm 
Свій


З нами з: 10.10.18
Востаннє: 10.12.18
Повідомлень: 141

2018-11-20 09:57  
УВАГА! РЕЛІЗ ОНОВЛЕНО! (19.11.2018) Додано 3 серію.

DniproFilm 
Свій


З нами з: 10.10.18
Востаннє: 10.12.18
Повідомлень: 141

2018-11-24 00:44  
УВАГА! РЕЛІЗ ОНОВЛЕНО! (24.11.2018) Додано 4 серію.

DniproFilm 
Свій


З нами з: 10.10.18
Востаннє: 10.12.18
Повідомлень: 141

2018-12-01 14:37  
УВАГА! РЕЛІЗ ОНОВЛЕНО! (01.12.2018) Додано 5 серію.

DniproFilm 
Свій


З нами з: 10.10.18
Востаннє: 10.12.18
Повідомлень: 141

2018-12-07 12:36  
УВАГА! РЕЛІЗ ОНОВЛЕНО! (07.12.2018) Додано 6 серію.

Ваш часовий пояс: GMT + 2 Години

Нова тема   Відповісти