Стен проти сил зла (Сезон 3, серії 1-4) / Stan Against Evil (Season 3, episodes 1-4) (2018)

Нові коментарі

Нова тема   Відповісти
Автор Повідомлення
DniproFilm 
Частий відвідувач


З нами з: 10.10.18
Востаннє: 13.11.18
Повідомлень: 40

2018-11-02 20:30  
Стен проти сил зла (Сезон 3, серії 1-4) / Stan Against Evil (Season 3, episodes 1-4) (2018)

Стен проти сил зла (Сезон 3, серії 1-4) / Stan Against Evil (Season 3, episodes 1-4) (2018)


Жанр: комедія, жахи
Країна: США


Кінокомпанія / телеканал: 3 Arts Entertainment, Radical Media
Режисер: Джек Бішоп
Актори/ролі озвучують: Даніель Фелан, Мік Ігніс, Грегорі Нассіф Ст. Джон, Джон К. МакГінлі, Джанет Верні, Нат Муні, Чарльз Грін, Дебора Бейкер мл., Д.Л. Андерсон та інші

Сюжет:
У невеликому провінційному містечку з багатою історією живе головний герой - Стенлі Міллер, який переживає зараз непростий період. Кілька тижнів тому чоловік поховав свою кохану дружину, після чого він «зірвався» і влаштував істерику на кладовищі. Ця витівка позбавила його роботи - у героя відібрали посаду шерифа. А тепер ще йому доводиться виховувати Деніз самостійно, що не так-то просто, враховуючи незвичайність дівчинки. Ось і виходить, що разом законного відпочинку Стен отримує купу нових турбот. Ситуація ускладнюється, коли місто починають заповнювати жахливі істоти: відьми, привиди, демони і всілякі монстри. З сам містер Міллер раптово дізнається, що в минулому його дружина, колишня здатної відьмою, активно боролася з цим створіннями, поєднуючи охорону містечка з подружніми обов'язками. І тепер це завдання Стена належить узяти на свій контроль, адже безпорадна жінка-шериф Іві Баррет точно не впорається з чудовиськами - разом зі своїм помічником Леоном вона навряд чи справляється зі звичайними злочинцями.


Тривалість: 1 серія: ~ 23 хв. (цілком серій: 8)
Перелік серій

1. Hell Is What You Make It
2. The Hex Files
3. Larva My Life
4. The Demon Who Came in from the Heat
Якість:
Відео:
кодек:
розмір кадру: 720 x 400
бітрейт: ~ 1800 кб/с

Аудіо # 1:
мова: українська
переклад: багатоголосий закадровий
кодек: 5.1
бітрейт: 384 кб/с

Джерело озвучення:
DniproFilm
Info

Video
ID : 0
Format : MPEG-4 Visual
Format profile : Advanced [email protected]
Format settings : BVOP2
Format settings, BVOP : 2
Format settings, QPel : No
Format settings, GMC : No warppoints
Format settings, Matrix : Default (H.263)
Muxing mode : Packed bitstream
Codec ID :
Codec ID/Hint :
Duration : 22 min 3 s
Bit rate : 1 787 kb/s
Width : 720 pixels
Height : 400 pixels
Display aspect ratio : 16:9
Frame rate : 23.976 (24000/1001) FPS
Color space : YUV
Chroma subsampling : 4:2:0
Bit depth : 8 bits
Scan type : Progressive
Compression mode : Lossy
Bits/(Pixel*Frame) : 0.259
Stream size : 282 MiB (82%)
Writing library : 67

Audio
ID : 1
Format : AC-3
Format/Info : Audio Coding 3
Commercial name : Dolby Digital
Codec ID : 2000
Duration : 22 min 3 s
Bit rate mode : Constant
Bit rate : 384 kb/s
Channel(s) : 6 channels
Channel positions : Front: L C R, Side: L R, LFE
Sampling rate : 48.0 kHz
Frame rate : 31.250 FPS (1536 SPF)
Bit depth : 16 bits
Compression mode : Lossy
Stream size : 60.6 MiB (18%)
Alignment : Aligned on interleaves
Interleave, duration : 42 ms (1.00 video frame)
Interleave, preload duratio : 512 ms
Service kind : Complete Main
Скріншоти

Увага, присутня відео та аудіореклама.

Додані 3-4 серії.


Джерело: DniproFilm


Авторський реліз (завантажувати можна без реєстрації)
 Трекер:    Зареєстрований   

Завантажити / скачати серіал українською



відео для новачків



 Зареєстрований:   2018-11-10 18:21
 Розмір:   1.34 GB 
 Оцінка серіалу:   10/10 (Голосів: 4)
   
sinpavla 
Свій


З нами з: 15.06.12
Востаннє: 14.11.18
Повідомлень: 71

2018-11-03 06:08  
красно дякую.чекаю на час, коли у великій сінагозі будуть молитися людською божою мовою
DniproFilm 
Частий відвідувач


З нами з: 10.10.18
Востаннє: 13.11.18
Повідомлень: 40

2018-11-10 18:23  
Реліз оновлено (10.11.2018)
Ваш часовий пояс: GMT + 2 Години

Нова тема   Відповісти