Стен проти сил зла (Сезон 3) / Stan Against Evil (Season 3) (2018) 720p Ukr/Eng

Нові коментарі

Нова тема   Відповісти
Автор Повідомлення
DniproFilm 
VIP


З нами з: 10.10.18
Востаннє: 20.01.19
Повідомлень: 273

2018-11-02 20:30  
Стен проти сил зла (Сезон 3) / Stan Against Evil (Season 3) (2018) 720p Ukr/Eng

Стен проти сил зла (Сезон 3) / Stan Against Evil (Season 3) (2018) 720p Ukr/Eng


Жанр: комедія, жахи
Країна: США



Кінокомпанія / телеканал: 3 Arts Entertainment, Radical Media
Режисер: Джек Бішоп
Актори/ролі озвучують: Даніель Фелан, Мік Ігніс, Грегорі Нассіф Ст. Джон, Джон К. МакГінлі, Джанет Верні, Нат Муні, Чарльз Грін, Дебора Бейкер мл., Д.Л. Андерсон та інші

Сюжет:
У невеликому провінційному містечку з багатою історією живе головний герой – Стенлі Міллер, який переживає зараз непростий період. Кілька тижнів тому чоловік поховав свою кохану дружину, після чого він «зірвався» і влаштував істерику на кладовищі. Ця витівка позбавила його роботи - у героя відібрали посаду шерифа. А тепер ще йому доводиться виховувати Деніз самостійно, що досить не просто, враховуючи незвичайність дівчинки. Ось і виходить, що замість законного відпочинку Стен отримує купу нових турбот. Ситуація ускладнюється, коли місто починають заповнювати жахливі істоти: відьми, привиди, демони і всілякі монстри. А сам містер Міллер раптово дізнається, що в минулому його дружина, колишня відьма, активно боролася з цими створіннями, поєднуючи охорону містечка з подружніми обов'язками. І тепер це завдання Стену належить узяти на свій контроль, адже безпорадна жінка-шериф Іві Баррет точно не впорається з чудовиськами – разом зі своїм помічником Леоном вона заледве справляється зі звичайними злочинцями.


Тривалість: 1 серія: ~ 23 хв. (цілком серій: 8)
Перелік серій

1. Hell Is What You Make It
2. The Hex Files
3. Larva My Life
4. The Demon Who Came in from the Heat
5. Nubbin But Trouble
6. Vampire Creek
7. Intensive Scare Unit
8. Stan Against Evie
Якість:
Відео:
кодек:
розмір кадру: 1280x720
бітрейт: ~4000 кб/с

Аудіо # 1:
мова: українська
переклад: багатоголосий закадровий
кодек: 5.1
бітрейт: 384 кб/с

Аудіо # 2:
мова: англійська
переклад: оригінал
кодек: 5.1
бітрейт: 640 кб/с

Джерело озвучення:
DniproFilm
Info

Video
ID : 1
Format : AVC
Format/Info : Advanced Video Codec
Format profile : [email protected]
Format settings : CABAC / 4 Ref Frames
Format settings, CABAC : Yes
Format settings, ReFrames : 4 frames
Codec ID : V_MPEG4/ISO/AVC
Duration : 22 min 3 s
Bit rate : 3 975 kb/s
Width : 1 280 pixels
Height : 720 pixels
Display aspect ratio : 16:9
Frame rate mode : Constant
Frame rate : 23.976 (24000/1001) FPS
Standard : NTSC
Color space : YUV
Chroma subsampling : 4:2:0
Bit depth : 8 bits
Scan type : Progressive
Bits/(Pixel*Frame) : 0.180
Stream size : 627 MiB (80%)
Language : English
Default : Yes
Forced : No
Color range : Limited
Color primaries : BT.709
Transfer characteristics : BT.709
Matrix coefficients : BT.709

Audio #1
ID : 2
Format : AC-3
Format/Info : Audio Coding 3
Commercial name : Dolby Digital
Codec ID : A_AC3
Duration : 22 min 3 s
Bit rate mode : Constant
Bit rate : 384 kb/s
Channel(s) : 6 channels
Channel positions : Front: L C R, Side: L R, LFE
Sampling rate : 48.0 kHz
Frame rate : 31.250 FPS (1536 SPF)
Bit depth : 16 bits
Compression mode : Lossy
Stream size : 60.6 MiB (8%)
Title : DniproFilm
Language : Ukrainian
Service kind : Complete Main
Default : Yes
Forced : No

Audio #2
ID : 3
Format : AC-3
Format/Info : Audio Coding 3
Codec ID : A_AC3
Duration : 21 min 32 s
Bit rate : 640 kb/s
Channel(s) : 6 channels
Sampling rate : 48.0 kHz
Frame rate : 31.250 FPS (1536 SPF)
Compression mode : Lossy
Stream size : 98.6 MiB (13%)
Language : English
Default : No
Forced : No
Скріншоти

Увага, присутня відео та аудіореклама.


Джерело: DniproFilm



Авторський реліз (завантажувати можна без реєстрації)
 Трекер:    Зареєстрований   

Завантажити / скачати серіал українською



відео для новачків



 Зареєстрований:   2018-11-26 21:45
 Розмір:   6.14 GB 
 Оцінка серіалу:   10/10 (Голосів: 3)
   
DniproFilm 
VIP


З нами з: 10.10.18
Востаннє: 20.01.19
Повідомлень: 273

2018-11-10 18:22  
Увага! Реліз оновлено (10.11.2018)
DniproFilm 
VIP


З нами з: 10.10.18
Востаннє: 20.01.19
Повідомлень: 273

2018-11-20 09:59  
УВАГА! Реліз оновлено (19.11.2018) Додано 5-6 серії.

DniproFilm 
VIP


З нами з: 10.10.18
Востаннє: 20.01.19
Повідомлень: 273

2018-11-26 21:46  
УВАГА! Реліз оновлено (26.11.2018) Додано 7-8 серії (фінал сезону).

casper101 
VIP


З нами з: 03.12.09
Востаннє: 21.01.19
Повідомлень: 335

2018-11-26 22:17  
як це дивитися як що немає 2 сезону?
Ваш часовий пояс: GMT + 2 Години

Нова тема   Відповісти