Чорна Діра [Режисерська версія] / Pitch Black [Director's cut] (2000) 720p Ukr/Eng | Sub Eng

Нові коментарі

Нова тема   Відповісти
Автор Повідомлення
staf777 
Відео Гуртом - підтримка та поширення
Відео Гуртом - підтримка та поширення


З нами з: 16.11.16
Востаннє: 26.09.20
Повідомлень: 4047

2018-11-02 17:35  
Чорна Діра [Режисерська версія] / Pitch Black [Director's cut] (2000) 720p Ukr/Eng | Sub Eng

Чорна Діра [Режисерська версія] / Pitch Black [Director's cut] (2000) 720p Ukr/Eng | Sub Eng


Жанр: фантастика, бойовик, трилер, пригодницький
Країна: США



Кінокомпанія: Universal Pictures
Режисер: Девід Туї / David Twohy
Актори: Він Дізель, Рада Мітчел, Коул Хаузер, Кіт Дейвід, Льюїс Фіц-Джеральд, Клаудія Блек

Сюжет:
Міжгалактичний вантажний корабель потрапляє в метеоритний дощ і падає на прилеглу маленьку планету - випалену, руду пустелю. Декілька пасажирів вижили, серед них - члени екіпажу Керолайн (Рада Мітчелл) і Джонс (Коул Хаузер), а також - злочинець Річард Ріддік (Вин Дизель), виявляють, що в атмосфері маленької планети присутній кисень, а от життя давно покинула цю землю, але завдяки трьом сонць тут ніколи не наступає ніч. Однак раз на 27 років, як виявилося, ніч приходить і сюди. Саме цей рідкісний випадок випадає героям. І вони зустрічаються віч-на-віч з справжніми мешканцями планети ...


Тривалість: 01:51:55 [Режисерська версія]
Якість:
Відео:
кодек:
розмір кадру: 1280x544
бітрейт: 6881 кб/с

Аудіо # 1:
мова: українська
переклад: двоголосий закадровий | Студія "ТВ+"
кодек: 5.1
бітрейт: 448 кб/с
примітка: присутні неозвучені епізоди, на них є форсовані субтитри

Аудіо # 2:
мова: англійська
переклад: оригінал
кодек: 5.1
бітрейт: 1509 кб/с

Субтитри: форсовані - для місць без озвучення
мова: українська
тип: програмні (м'які)
формат: *.srt

Субтитри:
мова: англійська
тип: програмні (м'які)
формат: *.srt
Info
General
Unique ID : 67566889645944018935596000818038833772 (0x32D4E8DBAA42CBF9C76DCF229288026C)
Complete name : G:\Фантастика\Pitch Black (Dir.Cut) (2000) 720p [UA][ENG][Hurtom].
Format :
Format version : Version 4 / Version 2
File size : 6.91 GiB
Duration : 1 h 51 min
Overall bit rate : 8 839 kb/s
Movie name : Pitch Black (Dir.Cut) (2000) 720p [UA][ENG][Hurtom]
Encoded date : UTC 2018-11-02 12:16:37
Writing application : v24.0.0 ('Beyond The Pale') 64-bit
Writing library : libebml v1.3.6 + v1.4.9
Cover : Yes
Attachments : cover.jpg

Video
ID : 1
Format : AVC
Format/Info : Advanced Video Codec
Format profile : [email protected]
Format settings : CABAC / 10 Ref Frames
Format settings, CABAC : Yes
Format settings, ReFrames : 10 frames
Codec ID : V_MPEG4/ISO/AVC
Duration : 1 h 51 min
Bit rate : 6 881 kb/s
Width : 1 280 pixels
Height : 544 pixels
Display aspect ratio : 2.35:1
Frame rate mode : Constant
Frame rate : 23.976 (24000/1001) FPS
Color space : YUV
Chroma subsampling : 4:2:0
Bit depth : 8 bits
Scan type : Progressive
Bits/(Pixel*Frame) : 0.412
Stream size : 5.38 GiB (78%)
Writing library : core 115 r1995 c1e60b9
Encoding settings : cabac=1 / ref=11 / deblock=1:-3:-3 / analyse=0x3:0x113 / me=umh / subme=10 / psy=1 / psy_rd=1.05:0.15 / mixed_ref=1 / me_range=48 / chroma_me=0 / trellis=2 / 8x8dct=1 / cqm=0 / deadzone=21,11 / fast_pskip=0 / chroma_qp_offset=-3 / threads=6 / sliced_threads=0 / nr=0 / decimate=0 / interlaced=0 / bluray_compat=0 / constrained_intra=0 / bframes=8 / b_pyramid=1 / b_adapt=1 / b_bias=0 / direct=3 / weightb=1 / open_gop=0 / weightp=2 / keyint=250 / keyint_min=23 / scenecut=50 / intra_refresh=0 / rc_lookahead=120 / rc=2pass / mbtree=1 / bitrate=6881 / ratetol=1.0 / qcomp=0.60 / qpmin=0 / qpmax=69 / qpstep=4 / cplxblur=20.0 / qblur=0.5 / vbv_maxrate=38000 / vbv_bufsize=30000 / nal_hrd=none / ip_ratio=1.40 / aq=1:1.50
Language : English
Default : No
Forced : No

Audio #1
ID : 2
Format : AC-3
Format/Info : Audio Coding 3
Codec ID : A_AC3
Duration : 1 h 51 min
Bit rate mode : Constant
Bit rate : 448 kb/s
Channel(s) : 6 channels
Channel positions : Front: L C R, Side: L R, LFE
Sampling rate : 48.0 kHz
Frame rate : 31.250 FPS (1536 SPF)
Bit depth : 16 bits
Compression mode : Lossy
Stream size : 359 MiB (5%)
Title : [UA-MVO-ICTV]
Language : Ukrainian
Service kind : Complete Main
Default : Yes
Forced : Yes

Audio #2
ID : 3
Format :
Format/Info : Digital Theater Systems
Codec ID : A_DTS
Duration : 1 h 51 min
Bit rate mode : Constant
Bit rate : 1 509 kb/s
Channel(s) : 6 channels
Channel positions : Front: L C R, Side: L R, LFE
Sampling rate : 48.0 kHz
Frame rate : 93.750 FPS (512 SPF)
Bit depth : 24 bits
Compression mode : Lossy
Delay relative to video : 11 ms
Stream size : 1.18 GiB (17%)
Language : English
Default : No
Forced : No

Text #1
ID : 4
Format : UTF-8
Codec ID : S_TEXT/UTF8
Codec ID/Info : UTF-8 Plain Text
Duration : 38 min 15 s
Bit rate : 11 b/s
Count of elements : 44
Stream size : 3.36 KiB (0%)
Title : [Forced]
Language : Ukrainian
Default : Yes
Forced : Yes

Text #2
ID : 5
Format : UTF-8
Codec ID : S_TEXT/UTF8
Codec ID/Info : UTF-8 Plain Text
Duration : 1 h 44 min
Bit rate : 41 b/s
Count of elements : 1179
Stream size : 31.5 KiB (0%)
Language : English
Default : No
Forced : No

Menu
00:00:00.000 : en:(01)00:00:00:000
00:02:56.885 : en:(02)00:02:56:885
00:08:28.007 : en:(03)00:08:28:007
00:17:05.858 : en:(04)00:17:05:858
00:27:13.631 : en:(05)00:27:13:631
00:32:27.987 : en:(06)00:32:27:987
00:36:49.915 : en:(07)00:36:49:915
00:46:49.389 : en:(08)00:46:49:389
00:56:08.907 : en:(09)00:56:08:907
01:02:45.678 : en:(10)01:02:45:678
01:08:07.750 : en:(11)01:08:07:750
01:14:22.291 : en:(12)01:14:22:291
01:20:00.503 : en:(13)01:20:00:503
01:25:38.800 : en:(14)01:25:38:800
01:30:14.909 : en:(15)01:30:14:909
01:38:59.975 : en:(16)01:38:59:975
01:43:37.878 : en:(17)01:43:37:878
01:46:13.867 : en:(18)01:46:13:867
01:51:54.916 : en:(19)01:51:54:916
Скріншоти




Велика подяка Merdiff за зукозапис з Тб,_oles за зведення звуку та thefir за українізований постер.
Джерело: &
Чорна Діра [Режисерська версія] / Pitch Black [Director's cut] (2000) 720p Ukr/Eng | Sub Eng
Чорна Діра [Режисерська версія] / Pitch Black [Director's cut] (2000) 720p Ukr/Eng | Sub Eng


Срібний реліз (на рейтинг впливає 50% завантаженого)
 Трекер:    Зареєстрований   

Завантажити / скачати фільм українською



відео для новачків



 Зареєстрований:   2018-11-02 17:35
 Розмір:   6.91 GB 
 Оцінка фільму:   9.2/10 (Голосів: 22)
   
pdvpdvpdv 
Новенький


З нами з: 17.04.10
Востаннє: 24.09.20
Повідомлень: 6

2018-11-05 17:31  
Цитата:
Режисер: Девід Твохі / David Twoh

Твохі.. АРУ.

igor911 
Модератор відео


З нами з: 18.01.08
Востаннє: 26.09.20
Повідомлень: 15006

2018-11-05 20:59  
Порівняння з театральною версією:

Ваш часовий пояс: GMT + 2 Години

Нова тема   Відповісти