Поп-зірка / Popstar: Never Stop Never Stopping (2016) 720p Eng | sub Ukr/Eng

Нові коментарі

Нова тема   Відповісти
Останній раз роздавалося Kristysia (2019-11-02)
Автор Повідомлення
Anonymous 







2018-11-02 13:38  
Поп-зірка / Popstar: Never Stop Never Stopping (2016) 720p Eng | sub Ukr/Eng

Поп-зірка / Popstar: Never Stop Never Stopping (2016) 720p Eng | sub Ukr/Eng


Жанр: комедія, музичний
Країна: США



Кінокомпанія: Apatow Productions
Режисер: Аківа Шаффер, Йорма Такконе
Актори: Енді Семберг, Йорма Такконе, Аківа Шаффер, Сара Сілверман, Тім Медоуз, Майя Рудольф, Джоан Кьюсак, Імоджен Путс, Кріс Редд

Сюжет:
З дитинства Коннер шаленів від музики. Ще дитиною він з двома найкращими друзями створив групу «The Style Boyz». Група стала дуже популярною, і Коннор зловив зіркову хворобу, вирішивши, що успіх групи - виключно його заслуга. Один друг дитинства зовсім перестав з ним розмовляти, інший працює у Коннера діджеєм. А найкращі друзі суперзірки - його менеджер, організатор вечірок і інші незрозумілі особистості, яким би тільки тусуватися з ранку до ночі. І ось наближається великий день - вихід нового сольного альбому. Але, як відомо, чим вище ти злетів, тим болючіше буде падати.


Тривалість: 01:26:25
Якість:
Відео:
кодек:
розмір кадру: 1280x534
бітрейт: 5222 кб/с

Аудіо:
мова: англійська
переклад: оригінал
кодек: 5.1
бітрейт: 640 кб/с

Субтитри:
мова: українська
тип: програмні (м'які)
формат: *.srt

Субтитри:
мова: англійська
тип: програмні (м'які)
формат: *.srt
Скріншоти






Mi
Format :
Format version : Version 4 / Version 2
File size : 3.54 GiB
Duration : 1 h 26 min
Overall bit rate : 5 863 kb/s
Encoded date : UTC 2018-11-02 11:25:58
Writing application : v27.0.0 ('Metropolis') 64-bit
Writing library : libebml v1.3.6 + v1.4.9

Video
ID : 1
Format : AVC
Format/Info : Advanced Video Codec
Format profile : [email protected]
Format settings : CABAC / 12 Ref Frames
Format settings, CABAC : Yes
Format settings, ReFrames : 12 frames
Codec ID : V_MPEG4/ISO/AVC
Duration : 1 h 26 min
Bit rate : 5 222 kb/s
Width : 1 280 pixels
Height : 534 pixels
Display aspect ratio : 2.40:1
Frame rate mode : Constant
Frame rate : 23.976 (24000/1001) FPS
Color space : YUV
Chroma subsampling : 4:2:0
Bit depth : 8 bits
Scan type : Progressive
Bits/(Pixel*Frame) : 0.319
Stream size : 3.15 GiB (89%)
Writing library : core 148 r2705 3f5ed56
Encoding settings : cabac=1 / ref=12 / deblock=1:-3:-3 / analyse=0x3:0x133 / me=umh / subme=10 / psy=1 / psy_rd=1.00:0.00 / mixed_ref=1 / me_range=64 / chroma_me=1 / trellis=2 / 8x8dct=1 / cqm=0 / deadzone=21,11 / fast_pskip=0 / chroma_qp_offset=-2 / threads=6 / lookahead_threads=1 / sliced_threads=0 / nr=0 / decimate=0 / interlaced=0 / bluray_compat=0 / constrained_intra=0 / bframes=9 / b_pyramid=2 / b_adapt=2 / b_bias=0 / direct=3 / weightb=1 / open_gop=0 / weightp=2 / keyint=250 / keyint_min=24 / scenecut=40 / intra_refresh=0 / rc_lookahead=60 / rc=crf / mbtree=0 / crf=18.2 / qcomp=0.65 / qpmin=0 / qpmax=69 / qpstep=4 / vbv_maxrate=62500 / vbv_bufsize=78125 / crf_max=0.0 / nal_hrd=none / filler=0 / ip_ratio=1.25 / pb_ratio=1.18 / aq=3:0.73 / zones=0,735,crf=14.3/4522,4586,crf=13.3/5607,5658,crf=13.3/6200,6256,crf=15.3/9311,9512,crf=16.3/9677,9700,crf=16.3/19738,20360,crf=16.3/76499,76530,crf=13.3/79371,79517,crf=14.8/84327,84389,crf=14.3/118600,118672,crf=14.3/118672,119742,crf=22/121205,124436,crf=22
Language : English
Default : Yes
Forced : No

Audio
ID : 2
Format : AC-3
Format/Info : Audio Coding 3
Commercial name : Dolby Digital
Codec ID : A_AC3
Duration : 1 h 26 min
Bit rate mode : Constant
Bit rate : 640 kb/s
Channel(s) : 6 channels
Channel layout : L R C LFE Ls Rs
Sampling rate : 48.0 kHz
Frame rate : 31.250 FPS (1536 SPF)
Bit depth : 16 bits
Compression mode : Lossy
Delay relative to video : -458 ms
Stream size : 396 MiB (11%)
Language : English
Service kind : Complete Main
Default : Yes
Forced : No

Text #1
ID : 3
Format : UTF-8
Codec ID : S_TEXT/UTF8
Codec ID/Info : UTF-8 Plain Text
Duration : 1 h 25 min
Bit rate : 183 b/s
Count of elements : 1813
Stream size : 116 KiB (0%)
Title : Netflix
Language : Ukrainian
Default : Yes
Forced : No

Text #2
ID : 4
Format : UTF-8
Codec ID : S_TEXT/UTF8
Codec ID/Info : UTF-8 Plain Text
Duration : 1 h 25 min
Bit rate : 109 b/s
Count of elements : 1779
Stream size : 68.6 KiB (0%)
Language : English
Default : No
Forced : No

Menu #1
00:00:00.000 : en:00:00:00.000
00:05:54.479 : en:00:05:54.479
00:09:26.566 : en:00:09:26.566
00:14:38.169 : en:00:14:38.169
00:19:34.215 : en:00:19:34.215
00:24:49.279 : en:00:24:49.279
00:28:27.539 : en:00:28:27.539
00:31:45.070 : en:00:31:45.070
00:36:11.669 : en:00:36:11.669
00:40:15.580 : en:00:40:15.580
00:43:03.915 : en:00:43:03.915
00:46:44.093 : en:00:46:44.093
00:51:06.814 : en:00:51:06.814
00:54:38.775 : en:00:54:38.775
00:59:17.846 : en:00:59:17.846
01:05:15.161 : en:01:05:15.161
01:08:43.077 : en:01:08:43.077
01:13:13.598 : en:01:13:13.598
01:16:52.942 : en:01:16:52.942
01:22:29.736 : en:01:22:29.736
Джерело:
Особиста оцінка: 0 - не дивився


 Трекер:    Зареєстрований   

Завантажити / скачати фільм українською



відео для новачків



 Зареєстрований:   2018-11-02 13:38
 Розмір:   3.54 GB 
 Оцінка фільму:   10/10 (Голосів: 1)
   
Anonymous 







2018-11-02 13:46  
Дідько, щось я не догледів і реліз вже є цього фільму, але хай вже буде бо тут і кращий звук.

Ваш часовий пояс: GMT + 2 Години

Нова тема   Відповісти