Мураха Зет / Мураха Антц / Antz (1998) Remux 1080p 4xUkr/Eng | Sub Eng

Нові коментарі

Нова тема   Відповісти
Автор Повідомлення
staf777 
Відео Гуртом - підтримка та поширення
Відео Гуртом - підтримка та поширення


З нами з: 16.11.16
Востаннє: 02.03.21
Повідомлень: 5068

2018-11-02 12:12  
Мураха Зет / Мураха Антц / Antz (1998) Remux 1080p 4xUkr/Eng | Sub Eng

Мураха Зет / Мураха Антц / Antz (1998) Remux 1080p 4xUkr/Eng | Sub Eng


Жанр: анімація, дитячий, сімейний, комедія
Країна: США



Кінокомпанія: DreamWorks SKG, Pacific Data Images (PDI), DreamWorks Animation
Режисер: Ерік Дарнелл, Тім Джонсон
Актори: Вуді Аллен, Ден Ейкройд, Енн Бенкрофт, Джейн Кертін, Денні Ґловер, Джин Гекмен, Дженніфер Лопез, Джон Магоні, Пол Мазурскі, Ґрант Шод, Сильвестр Сталлоне, Шарон Стоун, Крістофер Вокен Вуді Аллен, Ден Ейкройд, Енн Бенкрофт, Джейн Кертін, Денні Ґловер, Джин Гекмен, Дженніфер Лопез, Джон Магоні, Пол Мазурскі, Ґрант Шод, Сильвестр Сталлоне, Шарон Стоун, Крістофер Вокен

Сюжет:
Великий мурашник поділений на дві частини: мурашки-робітники і мурашки-солдати. Робітники працюють з ранку до ночі, а солдати воюють з термітами під командуванням владного і заздрісного генерала Мендібала. Так було завжди. І нікому, крім мурашки Антц, що працює на будівництві тунелю, не спадає на думку, що все може бути по-іншому. Одного разу в бар на танці приходить принцеса Бала і там знайомиться з мурахою. Він закохується в красуню з першого погляду. Щоб ще хоча б раз побачити її, Антц міняється місцями з приятелем-солдатом Вівером і вирушає на військовий парад, навіть не здогадуючись, що чекає його попереду.


Тривалість: 01:23:21
Якість: Remux 1080p
Відео:
кодек:
розмір кадру: 1920x1080
бітрейт: 31.4 Mб/с

Аудіо # 1:
мова: українська
переклад: професійний дубльований
кодек: 2.0
бітрейт: 192 кб/с

Аудіо # 2:
мова: українська
переклад: професійний дубльований
кодек: 2.0
бітрейт: 192 кб/с

Аудіо # 3:
мова: українська
переклад: багатоголосий закадровий
кодек: 2.0
бітрейт: 192 кб/с

Аудіо # 4:
мова: українська
переклад: двоголосий закадровий
кодек: 2.0
бітрейт: 192 кб/с

Аудіо # 5:
мова: англійська
переклад: оригінал
кодек: -HD MA 5.1
бітрейт: 4207 кб/с

Аудіо # 6:
мова: англійська
переклад: коментарі
кодек: 2.0
бітрейт: 192 кб/с

Субтитри:
мова: англійська
тип: програмні (м'які)
формат: *.srt
Info
General
Unique ID : 280673765347773725507385766745594634595 (0xD327CD09AA203913470D5BDC887FA163)
Complete name : I:\Antz (1998) Remux 1080p [4xUA] [ENG] [Hurtom].
Format :
Format version : Version 4 / Version 2
File size : 21.3 GiB
Duration : 1 h 23 min
Overall bit rate mode : Variable
Overall bit rate : 36.6 Mb/s
Movie name : Antz (1998) Remux 1080p [4xUA] [ENG] [Hurtom]
Encoded date : UTC 2018-11-02 11:04:50
Writing application : v24.0.0 ('Beyond The Pale') 64-bit
Writing library : libebml v1.3.6 + v1.4.9
Cover : Yes
Attachments : cover.jpg

Video
ID : 1
Format : AVC
Format/Info : Advanced Video Codec
Format profile : [email protected]
Format settings : CABAC / 4 Ref Frames
Format settings, CABAC : Yes
Format settings, ReFrames : 4 frames
Format settings, GOP : M=3, N=12
Codec ID : V_MPEG4/ISO/AVC
Duration : 1 h 23 min
Bit rate mode : Variable
Bit rate : 31.4 Mb/s
Maximum bit rate : 35.0 Mb/s
Width : 1 920 pixels
Height : 1 080 pixels
Display aspect ratio : 16:9
Frame rate mode : Constant
Frame rate : 23.976 (24000/1001) FPS
Color space : YUV
Chroma subsampling : 4:2:0
Bit depth : 8 bits
Scan type : Progressive
Bits/(Pixel*Frame) : 0.631
Stream size : 18.3 GiB (86%)
Title : [Antz_1998_|All_Films_Rutracker|_by Dalemake]
Language : English
Default : No
Forced : No

Audio #1
ID : 2
Format : AC-3
Format/Info : Audio Coding 3
Codec ID : A_AC3
Duration : 1 h 23 min
Bit rate mode : Constant
Bit rate : 192 kb/s
Channel(s) : 2 channels
Channel positions : Front: L R
Sampling rate : 48.0 kHz
Frame rate : 31.250 FPS (1536 SPF)
Bit depth : 16 bits
Compression mode : Lossy
Stream size : 114 MiB (1%)
Title : Dub - TET
Language : Ukrainian
Service kind : Complete Main
Default : Yes
Forced : Yes

Audio #2
ID : 3
Format : AC-3
Format/Info : Audio Coding 3
Codec ID : A_AC3
Duration : 1 h 23 min
Bit rate mode : Constant
Bit rate : 192 kb/s
Channel(s) : 2 channels
Channel positions : Front: L R
Sampling rate : 48.0 kHz
Frame rate : 31.250 FPS (1536 SPF)
Bit depth : 16 bits
Compression mode : Lossy
Stream size : 114 MiB (1%)
Title : Dub - ICTV
Language : Ukrainian
Service kind : Complete Main
Default : No
Forced : No

Audio #3
ID : 4
Format : AC-3
Format/Info : Audio Coding 3
Codec ID : A_AC3
Duration : 1 h 23 min
Bit rate mode : Constant
Bit rate : 192 kb/s
Channel(s) : 2 channels
Channel positions : Front: L R
Sampling rate : 48.0 kHz
Frame rate : 31.250 FPS (1536 SPF)
Bit depth : 16 bits
Compression mode : Lossy
Stream size : 114 MiB (1%)
Title : MVO - K1
Language : Ukrainian
Service kind : Complete Main
Default : No
Forced : No

Audio #4
ID : 5
Format : AC-3
Format/Info : Audio Coding 3
Codec ID : A_AC3
Duration : 1 h 23 min
Bit rate mode : Constant
Bit rate : 192 kb/s
Channel(s) : 2 channels
Channel positions : Front: L R
Sampling rate : 48.0 kHz
Frame rate : 31.250 FPS (1536 SPF)
Bit depth : 16 bits
Compression mode : Lossy
Stream size : 114 MiB (1%)
Title : DVO - H
Language : Ukrainian
Service kind : Complete Main
Default : No
Forced : No

Audio #5
ID : 6
Format :
Format/Info : Digital Theater Systems
Format profile : MA / Core
Codec ID : A_DTS
Duration : 1 h 23 min
Bit rate mode : Variable / Constant
Bit rate : 4 207 kb/s / 1 509 kb/s
Channel(s) : 6 channels
Channel positions : Front: L C R, Side: L R, LFE
Sampling rate : 48.0 kHz
Frame rate : 93.750 FPS (512 SPF)
Bit depth : 24 bits
Compression mode : Lossless / Lossy
Stream size : 2.45 GiB (12%)
Title : Original
Language : English
Default : No
Forced : No

Audio #6
ID : 7
Format : AC-3
Format/Info : Audio Coding 3
Codec ID : A_AC3
Duration : 1 h 23 min
Bit rate mode : Constant
Bit rate : 192 kb/s
Channel(s) : 2 channels
Channel positions : Front: L R
Sampling rate : 48.0 kHz
Frame rate : 31.250 FPS (1536 SPF)
Bit depth : 16 bits
Compression mode : Lossy
Stream size : 114 MiB (1%)
Title : Commentary Eric Darnell & Tim Johnson
Language : English
Service kind : Complete Main
Default : No
Forced : No

Text #1
ID : 8
Format : UTF-8
Codec ID : S_TEXT/UTF8
Codec ID/Info : UTF-8 Plain Text
Duration : 1 h 18 min
Bit rate : 72 b/s
Count of elements : 1181
Stream size : 42.1 KiB (0%)
Title : Full
Language : English
Default : No
Forced : No

Text #2
ID : 9
Format : UTF-8
Codec ID : S_TEXT/UTF8
Codec ID/Info : UTF-8 Plain Text
Duration : 1 h 18 min
Bit rate : 79 b/s
Count of elements : 1287
Stream size : 46.1 KiB (0%)
Title : Full - SDH
Language : English
Default : No
Forced : No

Menu
00:00:00.000 : en:Chapter 01
00:03:16.988 : en:Chapter 02
00:08:27.590 : en:Chapter 03
00:11:20.096 : en:Chapter 04
00:17:46.565 : en:Chapter 05
00:20:42.991 : en:Chapter 06
00:24:53.492 : en:Chapter 07
00:29:05.535 : en:Chapter 08
00:33:13.241 : en:Chapter 09
00:36:04.036 : en:Chapter 10
00:42:43.185 : en:Chapter 11
00:48:26.069 : en:Chapter 12
00:56:07.906 : en:Chapter 13
00:58:58.660 : en:Chapter 14
01:04:57.935 : en:Chapter 15
01:07:44.977 : en:Chapter 16
01:13:33.826 : en:Chapter 17
01:18:10.727 : en:Chapter 18






За українські доріжки подяка п.: xSlim, omm, karvai0, Gonzo, pan_oleg, РОМЕО
Джерело: &
Особиста оцінка: 10 - без зайвих вагань рекомендую всім!
Мураха Зет / Мураха Антц / Antz (1998) Remux 1080p 4xUkr/Eng | Sub Eng
Мураха Зет / Мураха Антц / Antz (1998) Remux 1080p 4xUkr/Eng | Sub Eng


Золотий реліз (завантажене не впливає на рейтинг)
 Трекер:    Зареєстрований   

Завантажити / скачати мультфільм українською



відео для новачків



 Зареєстрований:   2018-11-02 15:03
 Розмір:   21.29 GB 
 Оцінка мультфільму:   8.7/10 (Голосів: 7)
   
Інші релізи
bot 
робот


З нами з: 30.09.07
Востаннє: 26.05.05
Повідомлень: 27280

2018-11-02 12:21  
Тему перенесено з Мультфільми в HD до форуму Анонси релізів


staf777

bot 
робот


З нами з: 30.09.07
Востаннє: 26.05.05
Повідомлень: 27280

2018-11-02 15:03  
Тему перенесено з Анонси релізів до форуму Мультфільми в HD


staf777

Ваш часовий пояс: GMT + 2 Години

Нова тема   Відповісти