Вар'яти Шоу (Сезон 3) (1-7 випуск) (2018) WEBRір 720p

Нові коментарі

Нова тема   Відповісти
Автор Повідомлення
PrinceOfUkraine 
Новенький


З нами з: 31.05.09
Востаннє: 14.12.18
Повідомлень: 8

2018-11-01 20:58  
Вар'яти Шоу (Сезон 3) (2018) WEBRір 720p

Вар'яти Шоу (Сезон 3) (1-7 випуск) (2018) WEBRір 720p


Жанр: Гумор-Шоу
Країна: Україна

Телеканал: Новий канал
Опис:
Вар'яти ШОУ було створено в 2010 році кращими представниками українського гумору. Шоу позбавлене російської мови та нецензурної лексики, практично відсутні жарти «нижче пояса» та на політичну тематику – переважає побутова тема. Очільник шоу – відомий український телеведучий Сергій Притула. Сьогодні до складу Вар’ятів входять артисти: Володимир Жогло, Володимир Ковцун, Віталій Тильний, Сергій Полупан, Валентин Сергійчук та Сергій Притула.


Тривалість: ~ 01:30:00 кожен випуск
Якість:
Відео:
кодек:
розмір кадру: 1280*720
бітрейт: ~3000 кб/с

Аудіо:
мова: українська
кодек: 2.0
бітрейт: 128 кб/с
Скріншоти


Media-info

General
Complete name : D:\Варяти - Сезон 3. Випуск 1 - 30.10.2018.720p.mp4
Format : MPEG-4
Format profile : Base Media
Codec ID : isom (isom)
File size : 2.14 GiB
Duration : 1 h 36 min
Overall bit rate mode : Variable
Overall bit rate : 3 180 kb/s
Encoded date : UTC 2018-11-01 18:33:25
Tagged date : UTC 2018-11-01 18:33:25

Video
ID : 1
Format : AVC
Format/Info : Advanced Video Codec
Format profile : [email protected]
Format settings : CABAC / 4 Ref Frames
Format settings, CABAC : Yes
Format settings, ReFrames : 4 frames
Codec ID : avc1
Codec ID/Info : Advanced Video Coding
Duration : 1 h 36 min
Source duration : 1 h 36 min
Bit rate : 3 000 kb/s
Maximum bit rate : 7 466 kb/s
Width : 1 280 pixels
Height : 720 pixels
Display aspect ratio : 16:9
Frame rate mode : Variable
Frame rate : 25.000 FPS
Minimum frame rate : 12.097 FPS
Maximum frame rate : 25.000 FPS
Color space : YUV
Chroma subsampling : 4:2:0
Bit depth : 8 bits
Scan type : Progressive
Bits/(Pixel*Frame) : 0.130
Stream size : 2.05 GiB (96%)
Source stream size : 2.05 GiB (96%)
Writing library : core 142 r2491 24e4fed
Encoding settings : cabac=1 / ref=3 / deblock=1:0:0 / analyse=0x3:0x113 / me=hex / subme=7 / psy=1 / psy_rd=1.00:0.00 / mixed_ref=1 / me_range=16 / chroma_me=1 / trellis=1 / 8x8dct=1 / cqm=0 / deadzone=21,11 / fast_pskip=1 / chroma_qp_offset=-2 / threads=16 / lookahead_threads=2 / sliced_threads=0 / nr=0 / decimate=1 / interlaced=0 / bluray_compat=0 / constrained_intra=0 / bframes=3 / b_pyramid=2 / b_adapt=1 / b_bias=0 / direct=1 / weightb=1 / open_gop=0 / weightp=2 / keyint=250 / keyint_min=25 / scenecut=40 / intra_refresh=0 / rc_lookahead=40 / rc=abr / mbtree=1 / bitrate=3000 / ratetol=1.0 / qcomp=0.60 / qpmin=0 / qpmax=69 / qpstep=4 / ip_ratio=1.40 / aq=1:1.00
Tagged date : UTC 2018-11-01 18:33:43
Color range : Limited
Transfer characteristics : BT.601
Matrix coefficients : BT.601
Codec configuration box : avcC

Audio
ID : 2
Format : LC
Format/Info : Advanced Audio Codec Low Complexity
Codec ID : mp4a-40-2
Duration : 1 h 36 min
Source duration : 1 h 36 min
Bit rate mode : Variable
Bit rate : 128 kb/s
Maximum bit rate : 132 kb/s
Channel(s) : 2 channels
Channel layout : L R
Sampling rate : 48.0 kHz
Frame rate : 46.875 FPS (1024 SPF)
Compression mode : Lossy
Stream size : 88.1 MiB (4%)
Source stream size : 88.1 MiB (4%)
Default : Yes
Alternate group : 1
Tagged date : UTC 2018-11-01 18:33:43
Джерело:
Особиста оцінка: 10 - без зайвих вагань рекомендую всім!


Золотий реліз (завантажене не впливає на рейтинг)
 Трекер:    Зареєстрований   

Завантажити / скачати передачу українською



відео для новачків



 Зареєстрований:   2018-12-11 23:37
 Розмір:   13.97 GB 
 Оцінка передачі:   10/10 (Голосів: 1)
   
11FrYkT 
Модератор відео


З нами з: 20.02.11
Востаннє: 14.12.18
Повідомлень: 5261

2018-11-04 09:33  
PrinceOfUkraine , скріншоти повинні бути у форматі ПНГ і додайте звіт Медіаінфо
PrinceOfUkraine 
Новенький


З нами з: 31.05.09
Востаннє: 14.12.18
Повідомлень: 8

2018-11-06 21:22  
Додано випуск №2 (06.11.2018)
PrinceOfUkraine 
Новенький


З нами з: 31.05.09
Востаннє: 14.12.18
Повідомлень: 8

2018-11-13 21:18  
Додано випуск №3 (13.11.2018)
PrinceOfUkraine 
Новенький


З нами з: 31.05.09
Востаннє: 14.12.18
Повідомлень: 8

2018-11-20 21:23  
Додано випуск №4 (20.11.2018)
PrinceOfUkraine 
Новенький


З нами з: 31.05.09
Востаннє: 14.12.18
Повідомлень: 8

2018-11-28 22:48  
Додано випуск №5 (27.11.2018)
PrinceOfUkraine 
Новенький


З нами з: 31.05.09
Востаннє: 14.12.18
Повідомлень: 8

2018-12-05 10:33  
Додано випуск №6 (04.12.2018)
PrinceOfUkraine 
Новенький


З нами з: 31.05.09
Востаннє: 14.12.18
Повідомлень: 8

2018-12-11 23:40  
Додано випуск №7 (11.12.2018)
Ваш часовий пояс: GMT + 2 Години

Нова тема   Відповісти